<?xml version="1.0" standalone="no"?>
<!DOCTYPE svg PUBLIC "-//W3C//DTD SVG 1.1//EN" "http://www.w3.org/Graphics/SVG/1.1/DTD/svg11.dtd">
<svg xmlns="http://www.w3.org/2000/svg">
<defs >
<font id="Vollkorn" horiz-adv-x="549" ><font-face
    font-family="Vollkorn"
    units-per-em="1000"
    panose-1="0 0 0 0 0 0 0 0 0 0"
    ascent="952"
    descent="-441"
    alphabetic="0" />
<glyph unicode=" " glyph-name="space" horiz-adv-x="190" />
<glyph unicode="!" glyph-name="exclam" horiz-adv-x="421" d="M343 716Q362 710 367 694T361 642Q347 596 329 528T291 384T254 235Q234 234 215 236T180 245Q189 327 195 400T204 541T209 678Q241 683 279 693T343 716ZM184 -9Q142 -9 120 16T107 86Q113 117
135 134T193 152Q216 152 234 141T262 109T266 59Q260 28 240 10T184 -9Z" />
<glyph unicode="&quot;" glyph-name="quotedbl" horiz-adv-x="370" d="M227 716Q242 709 246 693T241 651Q228 616 213 564T181 443Q165 443 150 445T123 455Q132 515 138 576T145 690Q167 692 189 699T227 716ZM381 716Q396 709 400 693T395 651Q382 616 367
564T335 443Q319 443 304 445T277 455Q286 515 292 576T299 690Q321 692 343 699T381 716Z" />
<glyph unicode="#" glyph-name="numbersign" horiz-adv-x="609" d="M394 -9Q372 -7 356 -1T330 14L468 716Q488 714 506 708T532 694L394 -9ZM39 195Q39 214 42 233T53 268H560Q560 250 558 234T547 198H451Q336 198 255 198T121 197T39 195ZM176 -9Q157 -8 140
-1T112 18L250 716Q270 715 288 709T314 692L176 -9ZM88 435Q88 454 90 471T102 508H598Q598 487 596 471T585 437H509Q407 437 330 437T195 437T88 435Z" />
<glyph unicode="$" glyph-name="dollar" horiz-adv-x="498" d="M211 -9Q159 -9 122 -1T55 23T-3 62Q10 98 18 135T31 210Q52 215 75 216T118 212Q112 131 137 94T226 57Q263 57 292 78T326 133Q333 171 315 197T266 245T199 290T133 344T88 419T85 527Q94 578
126 613T209 666T321 685Q380 685 423 671T492 637Q487 600 484 563T481 494Q443 481 396 487Q395 558 370 589T298 621Q260 621 236 605T205 550Q200 518 213 494T252 450T309 411T371 370T426 320T461 255T464 169Q455 115 419 75T330 13T211 -9ZM212 -89Q194
-88 176 -84T144 -70L227 361L289 331Q270 234 252 133T212 -89ZM297 331L235 361L311 753Q331 753 347 750T379 736Q354 621 335 523T297 331Z" />
<glyph unicode="%" glyph-name="percent" horiz-adv-x="769" d="M177 -9Q160 -2 147 13T131 45L646 685Q685 668 692 630Q632 557 580 495T481 374T386 256T288 133T177 -9ZM564 -9Q487 -9 450 41T429 174Q442 235 487 272T594 309Q668 309 703 260T722 128Q708
67 665 29T564 -9ZM569 51Q592 51 610 71T634 125Q644 181 631 215T583 249Q560 249 542 229T517 176Q507 120 521 86T569 51ZM223 359Q146 359 109 409T88 542Q101 603 146 640T254 677Q327 677 362 628T381 496Q367 435 324 397T223 359ZM229 419Q251 419 269
439T293 493Q304 549 290 583T243 617Q219 617 201 597T176 544Q166 488 180 454T229 419Z" />
<glyph unicode="&amp;" glyph-name="ampersand" horiz-adv-x="766" d="M383 717Q449 717 491 699T550 648T558 572Q549 525 526 495T469 444T398 408T323 376T253 339T197 285T165 203Q157 159 171 126T217 73T293 54Q345 54 394 67T486 107T557 171T595 255Q607
317 583 342T508 368Q505 398 512 425Q535 428 563 435T617 450T660 467Q698 455 711 417T712 313Q699 247 658 189T554 86T417 16T260 -9Q166 -9 109 17T29 92T18 206Q27 256 52 290T113 347T189 388T270 421T345 456T404 501T436 567Q444 608 427 632T372 657Q340
657 321 639T296 592Q292 570 295 546T314 487T360 405T441 288Q491 219 524 179T578 120T617 95T652 89Q667 89 680 94T707 110Q718 103 727 89T738 62Q726 44 705 28T655 1T595 -9Q568 -9 545 -6T500 10T451 48T391 115T311 220Q255 296 223 351T174 447T156
523T159 591Q165 623 188 652T259 699T383 717Z" />
<glyph unicode="&apos;" glyph-name="quotesingle" horiz-adv-x="216" d="M227 716Q242 709 246 693T241 651Q228 616 213 564T181 443Q165 443 150 445T123 455Q132 515 138 576T145 690Q167 692 189 699T227 716Z" />
<glyph unicode="(" glyph-name="parenleft" horiz-adv-x="324" d="M317 741Q335 743 350 738T375 724Q320 663 282 599T218 457T175 283Q147 122 156 -16T208 -259Q197 -266 183 -268T154 -271Q107 -196 79 -107T44 77T53 265Q69 359 99 437T182 589T317 741Z" />
<glyph unicode=")" glyph-name="parenright" horiz-adv-x="316" d="M169 741Q245 614 270 491T272 238Q254 136 221 51T133 -112T-3 -271Q-18 -272 -33 -269T-60 -257Q-1 -180 39 -107T107 48T151 227Q177 379 169 501T116 724Q128 733 142 737T169 741Z" />
<glyph unicode="*" glyph-name="asterisk" horiz-adv-x="482" d="M381 658Q362 672 334 677T277 680Q279 640 279 605T276 533Q245 559 219 582T169 633Q147 618 134 595T117 544Q157 534 189 523T254 498Q222 478 191 460T127 426Q140 369 195 347Q217 382 237
408T282 465Q292 426 298 391T309 319Q340 319 366 331T411 363Q384 394 364 421T321 482Q360 478 396 473T471 461Q478 491 476 518T459 570Q424 556 390 546T318 526Q332 561 348 594T381 658Z" />
<glyph unicode="+" glyph-name="plus" horiz-adv-x="550" d="M268 4Q249 1 231 3T199 16L292 503Q310 508 328 507T362 499Q336 376 313 253T268 4ZM39 228Q39 248 43 266T59 298H525Q525 280 521 263T507 232Q455 232 398 232T281 232T161 231T39 228Z" />
<glyph unicode="," glyph-name="comma" horiz-adv-x="232" d="M137 146Q155 137 163 112T162 38Q150 -26 111 -83T18 -183Q0 -181 -12 -173T-31 -153Q1 -123 22 -94T50 -40T45 2T-1 26Q-1 49 4 72T22 113Q53 115 84 124T137 146Z" />
<glyph unicode="-" glyph-name="hyphen" horiz-adv-x="369" d="M44 216Q47 245 52 264T66 300H334Q333 275 330 256T317 219Q268 219 199 219T44 216Z" />
<glyph unicode="." glyph-name="period" horiz-adv-x="240" d="M88 -9Q44 -9 20 17T6 92Q12 124 36 143T98 162Q122 162 142 150T171 116T175 63Q169 29 147 10T88 -9Z" />
<glyph unicode="/" glyph-name="slash" horiz-adv-x="295" d="M316 717Q355 712 377 687Q336 609 301 541T232 407T167 277T101 142T29 -9Q9 -6 -6 2T-31 26L316 717Z" />
<glyph unicode="0" glyph-name="zero" horiz-adv-x="615" d="M288 -9Q199 -9 141 28T60 131T54 286Q67 355 107 404T208 481T345 508Q432 508 488 472T566 373T572 223Q559 152 520 100T421 19T288 -9ZM301 54Q343 54 376 90T422 193Q437 269 429 325T394 412T323
443Q277 443 244 407T199 306Q186 231 194 175T230 86T301 54Z" />
<glyph unicode="1" glyph-name="one" horiz-adv-x="414" d="M31 -3Q32 15 34 30T43 58Q69 62 83 69T105 96T120 153L156 348Q163 385 161 403T145 430T102 442Q100 455 100 471T101 503Q134 501 169 501T245 500Q281 500 318 500T393 503Q393 487 391 472T382
442Q356 438 342 430T319 400T303 337L268 155Q261 115 263 96T279 70T321 58Q324 44 324 29T323 -3Q286 -1 252 -1T178 0Q136 0 99 0T31 -3Z" />
<glyph unicode="2" glyph-name="two" horiz-adv-x="506" d="M292 506Q243 506 194 495T103 459Q102 427 97 392T82 326Q98 319 119 316T165 312Q173 362 185 391T214 432T253 444Q286 444 303 422T311 358Q304 321 277 288T200 218Q166 192 143 174T100 141T61
108T15 67Q13 48 16 30T27 -3Q78 -1 125 -1T219 0Q268 0 306 -1T361 -3Q384 -3 397 3T420 30Q418 60 422 98T434 172Q421 179 399 182T359 183Q351 147 341 135T312 123Q302 123 283 124T240 126Q222 126 204 126T166 123L165 112Q191 132 207 144T233 164T250
177T267 187T289 202T323 226Q368 255 396 278T441 325T461 376Q472 438 428 472T292 506Z" />
<glyph unicode="3" glyph-name="three" horiz-adv-x="498" d="M95 459Q94 427 89 391T73 326Q91 318 114 315T157 312Q170 387 192 415T247 444Q280 444 297 420T306 351Q296 296 254 262T138 208Q135 192 137 175T149 147Q223 149 254 112T273 13Q262 -41 221
-73T115 -106Q89 -106 68 -102T31 -90Q25 -93 19 -102T8 -122T3 -142Q40 -171 121 -171Q195 -171 256 -147T360 -79T418 26Q433 80 419 125T368 201T272 238L256 203Q326 229 365 255T424 307T450 362Q466 427 424 466T279 506Q226 506 181 495T95 459Z" />
<glyph unicode="4" glyph-name="four" horiz-adv-x="572" d="M251 -171Q225 -158 231 -126L262 37L274 96L291 195Q301 242 308 272T322 326T339 373L349 366Q328 337 305 307T255 247T200 187T143 129T85 75L114 118H310L374 119H468Q495 119 507 94Q497 76 490
52T477 0Q315 0 202 -1T27 -5Q17 12 13 31T9 72Q111 179 210 287T405 506Q429 506 450 504T492 493L371 -153Q304 -149 251 -171Z" />
<glyph unicode="5" glyph-name="five" horiz-adv-x="481" d="M52 225Q51 196 70 176Q136 172 179 151T241 96T251 15Q244 -22 222 -49T167 -91T89 -106Q70 -106 49 -103T7 -91Q-14 -112 -20 -146Q0 -158 29 -164T96 -171Q168 -171 230 -147T337 -77T396 38Q412
109 384 164T289 253T120 297L132 274L173 411L152 371Q199 374 257 374T392 375Q425 375 436 399Q439 436 444 474T460 547Q445 554 424 555T383 555Q379 532 365 516T320 500Q276 500 232 500T138 503L52 225Z" />
<glyph unicode="6" glyph-name="six" horiz-adv-x="571" d="M61 287Q82 391 145 467T304 588T522 638Q534 619 525 584Q382 556 303 481T202 292Q189 219 192 167T215 86T268 57Q305 57 331 86T366 167Q380 238 357 281T282 325Q255 325 234 320T189 300L205 357Q245
378 278 386T348 395Q440 395 485 338T512 187Q501 126 467 82T379 15T257 -9Q137 -9 86 69T61 287Z" />
<glyph unicode="7" glyph-name="seven" horiz-adv-x="478" d="M461 503Q469 491 473 476T478 445Q427 376 393 328T337 245T300 183T275 132Q262 103 253 70T239 -6T232 -107Q203 -116 171 -133T117 -170Q101 -165 92 -150T83 -106Q83 -82 88 -54T111 12T162 104T251
234T388 415L400 374H244Q204 374 184 359T152 302Q128 301 108 304T72 316Q100 410 108 503Q151 501 201 501T293 500Q317 500 344 500T400 501T461 503Z" />
<glyph unicode="8" glyph-name="eight" horiz-adv-x="550" d="M346 637Q415 637 457 618T516 566T524 491Q515 444 479 412T388 356L327 393Q355 412 371 433T393 487Q402 533 385 556T334 580Q310 580 291 566T265 525Q256 492 267 468T300 425T343 391Q369 374
399 351T453 295T487 224T484 135Q465 63 404 27T244 -9Q171 -9 120 11T48 71T39 172Q52 228 91 266T199 336L256 294Q224 273 206 248T181 185Q170 126 191 90T256 54Q287 54 308 71T338 126Q348 167 336 197T294 254T219 312Q186 337 160 365T124 429T124 507Q140
569 198 603T346 637Z" />
<glyph unicode="9" glyph-name="nine" horiz-adv-x="568" d="M325 506Q400 506 449 472T516 374T515 216Q493 106 427 23T259 -111T29 -169Q23 -161 22 -147T24 -115Q113 -99 174 -66T276 12T340 112T375 225Q395 334 374 387T308 440Q271 440 246 410T211 330Q203
286 208 247T234 183T297 159Q317 159 337 164T379 184L364 129Q333 109 299 99T227 89Q162 89 122 117T68 197T67 315Q85 403 151 454T325 506Z" />
<glyph unicode=":" glyph-name="colon" horiz-adv-x="231" d="M342 10Q301 10 279 35T265 105Q271 136 293 153T352 171Q375 171 393 160T421 128T425 78Q419 47 399 29T342 10ZM140 289Q99 289 77 314T63 384Q69 415 91 432T150 450Q173 450 191 439T219 407T223
357Q217 326 197 308T140 289Z" />
<glyph unicode=";" glyph-name="semicolon" horiz-adv-x="243" d="M141 146Q159 137 167 112T166 38Q154 -26 115 -83T22 -183Q4 -181 -8 -173T-27 -153Q5 -123 26 -94T54 -40T49 2T3 26Q3 49 8 72T26 113Q57 115 88 124T141 146ZM152 289Q111 289 89 314T75 384Q81
415 103 432T162 450Q185 450 203 439T231 407T235 357Q229 326 209 308T152 289Z" />
<glyph unicode="&lt;" glyph-name="less" horiz-adv-x="550" d="M418 5Q323 68 233 123T59 223Q59 243 64 262T83 297L465 504Q484 498 496 485T519 448L145 260L443 78Q444 60 437 38T418 5Z" />
<glyph unicode="=" glyph-name="equal" horiz-adv-x="550" d="M38 131Q38 149 41 168T50 202H487Q487 182 485 165T475 132Q436 133 406 133T344 133T269 133Q226 133 191 133T119 133T38 131ZM73 308Q73 328 76 346T85 378H520Q520 357 518 342T508 309Q469 310
439 310T378 310T304 310Q260 310 225 310T154 310T73 308Z" />
<glyph unicode="&gt;" glyph-name="greater" horiz-adv-x="550" d="M77 7Q65 21 62 41T64 85L440 274L435 245L111 464Q123 480 140 492T178 509L494 286Q497 248 471 217Q401 183 340 151T216 85T77 7Z" />
<glyph unicode="?" glyph-name="question" horiz-adv-x="534" d="M200 672Q229 690 272 703T362 716Q455 716 500 677T533 570Q525 530 504 503T454 453T398 407T349 356T319 285Q317 272 317 255T317 222Q304 215 288 212T254 209Q237 222 229 257T227 334Q234
372 250 399T288 447T329 486T364 525T385 575Q392 613 380 634T340 656Q322 656 307 644T277 604T246 524Q221 524 205 528T175 541Q187 580 192 608T200 672ZM249 -9Q207 -9 185 16T171 86Q178 116 200 134T258 152Q281 152 299 141T327 109T331 58Q325 27 305
9T249 -9Z" />
<glyph unicode="@" glyph-name="at" horiz-adv-x="852" d="M506 660Q629 660 709 616T823 488T835 287Q825 225 800 172T738 78T657 14T564 -9Q529 -9 510 5T484 44T480 98T492 160H479L546 368L508 452Q550 451 588 454T658 467Q669 460 674 450T680 423T673
375L625 166Q617 130 617 113T621 90T635 85Q664 85 689 108T733 173T764 274Q782 378 755 451T659 563T486 602Q392 602 315 561T185 446T116 272Q93 145 123 53T231 -90T427 -140Q505 -140 575 -113T703 -44Q716 -48 724 -58T735 -81Q679 -135 597 -168T411 -202Q274
-202 181 -146T48 14T34 262Q55 382 121 471T286 610T506 660ZM584 450L540 390Q527 397 508 400T472 404Q423 404 395 363T354 256Q338 179 345 139T380 99Q397 99 423 124T475 201T519 336L538 416L576 409L527 191H507Q485 131 454 86T386 16T304 -9Q264 -9
240 9T204 58T192 131T201 218Q215 288 251 344T347 434T487 467Q516 467 541 462T584 450Z" />
<glyph unicode="A" glyph-name="A" horiz-adv-x="699" d="M-32 -3Q-31 14 -29 29T-20 58Q-2 63 11 73T41 104T81 164Q109 210 140 262T206 375T285 510T380 676Q395 681 409 681T439 682Q468 588 493 497T541 321T580 165Q590 121 598 99T617 70T641 58Q644 46
644 30T643 -3Q625 -1 599 -1T548 0T507 0Q495 0 476 0T436 0T395 -1T360 -3Q361 15 363 30T371 58Q414 65 424 81T425 137Q409 202 393 267T358 397Q348 429 342 466T334 545H357Q338 503 320 466T283 395Q250 333 215 271T143 148Q126 120 123 102T130 73T165
58Q167 44 167 29T165 -3Q152 -2 133 -2T93 -1T57 0Q31 0 9 0T-32 -3ZM141 183L166 247H420L427 191Q382 191 334 191T236 189T141 183Z" />
<glyph unicode="B" glyph-name="B" horiz-adv-x="659" d="M258 151Q250 109 254 89T274 64T315 59Q367 59 407 93T458 185Q473 260 438 289T313 318H260L271 383H328Q392 383 433 416T485 509Q496 563 469 590T388 618Q371 618 357 614T324 603L342 640L258 151ZM228
676Q266 676 315 677T414 679Q505 679 557 660T629 603T638 507Q629 454 583 416T461 367Q560 362 599 312T623 172Q613 120 577 82T477 22T319 0Q269 0 216 0T111 0T17 -3Q18 15 22 30T31 58Q59 62 73 70T96 102T111 171L173 526Q180 563 177 581T159 607T119
618Q116 632 116 647T118 679Q146 678 174 677T228 676Z" />
<glyph unicode="C" glyph-name="C" horiz-adv-x="624" d="M663 629Q650 595 643 557T630 476Q595 463 554 471Q562 535 551 567T515 612T452 625Q385 625 335 586T254 481T212 340Q201 266 214 205T269 106T385 69Q428 69 471 81T558 117Q568 107 572 93T578 63Q525
26 467 9T342 -9Q236 -9 167 37T69 164T56 346Q69 433 107 497T200 603T319 665T448 685Q510 685 562 672T663 629Z" />
<glyph unicode="D" glyph-name="D" horiz-adv-x="734" d="M407 678Q464 678 517 669T614 638T688 577T727 477T721 329Q707 249 675 192T597 98T501 39T396 9T295 0H169L180 61H322Q358 61 394 72T465 114T526 199T568 337Q584 421 576 476T541 562T478 606T397
619Q379 619 364 617T331 608L278 676Q307 676 339 677T407 678ZM118 679Q141 678 171 678T234 677T295 676T346 676L259 159Q251 117 253 96T272 68T323 61L295 0Q268 0 231 0T154 0T78 -1T18 -3Q19 13 22 28T31 58Q59 61 73 70T96 102T112 171L173 526Q180 563
177 582T159 608T119 618Q116 634 116 650T118 679Z" />
<glyph unicode="E" glyph-name="E" horiz-adv-x="612" d="M19 -3Q20 13 22 28T32 59Q60 62 74 71T97 103T113 171L173 520Q180 558 177 578T160 606T118 618Q116 632 116 647T118 679Q144 678 175 678T237 677T297 676T347 676L261 163Q253 119 255 97T275 68T326
61L296 0Q265 0 228 0T153 0T80 -1T19 -3ZM533 -3Q504 -1 465 -1T383 0T296 0L326 61H343Q390 61 420 75T471 119T510 196Q532 193 549 186T582 166Q568 133 555 89T533 -3ZM467 218Q448 219 432 222T400 232Q402 259 396 276T372 303T319 313H254L264 373H326Q379
373 401 387T430 448Q448 451 465 452T501 451Q494 424 489 397T478 330Q474 299 472 271T467 218ZM539 496Q537 535 528 561T492 601T408 615H305L342 676Q403 676 451 676T541 677T622 679Q616 640 614 593T614 506Q581 496 539 496Z" />
<glyph unicode="F" glyph-name="F" horiz-adv-x="574" d="M260 165Q253 125 255 104T275 74T337 58Q340 45 340 30T339 -3Q300 -1 261 -1T179 0Q136 0 96 0T17 -3Q20 32 30 58Q58 62 73 70T96 101T111 166L172 519Q179 556 177 576T161 605T119 618Q117 631 117
647T118 679Q153 678 191 677T269 676T346 676L260 165ZM618 679Q613 640 610 593T610 506Q577 496 535 496Q534 535 525 561T489 601T404 615H304L341 676Q401 676 449 676T538 677T618 679ZM435 414Q452 418 469 418T506 417Q499 391 494 363T483 297Q479 265
477 237T472 182Q453 184 437 187T405 196Q408 239 392 259T323 279H252L262 339H331Q384 339 406 354T435 414Z" />
<glyph unicode="G" glyph-name="G" horiz-adv-x="676" d="M457 685Q530 685 586 672T685 630Q674 597 666 558T653 478Q634 470 615 469T574 471Q580 533 569 566T530 612T459 625Q388 625 337 587T254 484T211 340Q203 282 207 231T228 141T277 79T356 56Q380
56 396 59T429 69Q440 74 447 82T459 107T469 153Q478 202 476 225T458 257T409 269Q407 283 407 299T408 330Q443 328 478 328T545 327Q580 327 611 327T683 330Q683 314 681 299T672 269Q652 267 641 260T622 228T604 147Q599 115 599 97T604 60Q555 31 486 11T337
-9Q233 -9 165 36T68 162T56 346Q69 434 107 498T201 603T323 665T457 685Z" />
<glyph unicode="H" glyph-name="H" horiz-adv-x="784" d="M417 -3Q418 15 421 29T430 58Q456 62 470 69T492 96T507 153L570 524Q577 561 575 579T559 606T516 618Q514 631 514 647T515 679Q548 677 584 677T660 676Q696 676 733 676T808 679Q808 663 806 648T797
618Q771 614 757 606T734 577T718 513L656 155Q649 117 651 98T666 71T707 58Q709 44 710 29T709 -3Q672 -1 639 -1T566 0Q523 0 485 0T417 -3ZM19 -3Q20 15 23 29T33 58Q59 62 73 69T95 96T109 153L173 524Q179 561 177 579T161 606T119 618Q117 631 117 647T118
679Q150 677 186 677T263 676Q298 676 335 676T411 679Q410 663 408 648T399 618Q373 614 359 606T336 577T321 513L259 155Q252 117 254 98T269 71T309 58Q312 44 312 29T311 -3Q274 -1 241 -1T168 0Q126 0 88 0T19 -3ZM239 301L250 373H573L564 310Q529 310 487
310T399 309T313 306T239 301Z" />
<glyph unicode="I" glyph-name="I" horiz-adv-x="387" d="M173 524Q179 561 177 579T161 606T119 618Q117 631 117 647T118 679Q150 677 186 677T263 676Q298 676 335 676T411 679Q410 663 408 648T399 618Q373 614 359 606T336 577T321 513L259 155Q252 117 254
98T269 71T309 58Q312 44 312 29T311 -3Q274 -1 241 -1T168 0Q126 0 88 0T19 -3Q20 15 23 29T33 58Q59 62 73 69T95 96T109 153L173 524Z" />
<glyph unicode="J" glyph-name="J" horiz-adv-x="348" d="M108 679Q137 677 175 677T253 676Q282 676 307 676T355 677T402 679Q401 645 392 618Q365 615 350 607T327 577T310 510L242 123Q230 53 213 -1T165 -100T83 -180T-48 -247Q-62 -237 -66 -221T-72 -186Q-31
-161 -1 -131T49 -56T82 56L163 525Q170 561 168 579T153 606T110 618Q106 632 106 647T108 679Z" />
<glyph unicode="K" glyph-name="K" horiz-adv-x="715" d="M118 679Q150 677 186 677T263 676Q298 676 335 676T411 679Q410 663 408 648T399 618Q373 614 359 606T336 577T321 513L258 153Q252 116 253 97T265 70T299 58Q302 44 302 29T301 -3Q277 -1 257 -1T216
0T168 0Q126 0 88 0T19 -3Q20 15 23 29T33 58Q61 61 75 70T96 101T111 164L173 524Q179 561 177 579T161 606T119 618Q117 631 117 647T118 679ZM505 679Q535 677 564 677T623 676Q644 676 665 676T706 677T742 679Q742 665 740 649T732 617Q704 614 683 608T638
584T574 532L384 364L390 396Q437 352 475 295T549 159Q564 124 577 112T607 99Q619 99 629 102T649 113Q660 105 668 91T680 63Q650 28 613 10T531 -9Q482 -8 453 15T404 96Q376 177 345 235T268 345L472 530Q508 562 521 579T530 605T508 618Q505 632 505 648T505
679Z" />
<glyph unicode="L" glyph-name="L" horiz-adv-x="595" d="M17 -3Q19 13 21 28T30 58Q59 61 73 70T95 103T111 171L173 526Q179 562 177 580T161 606T119 618Q116 631 116 647T118 679Q150 677 186 677T264 676Q299 676 343 676T424 679Q424 663 422 648T412 618Q379
614 362 605T336 575T319 510L258 159Q251 117 253 96T272 68T322 61H333Q378 61 407 75T458 121T500 200Q523 195 541 187T574 165Q560 135 547 90T525 -3Q498 -1 459 -1T378 0T297 0Q269 0 231 0T152 0T76 -1T17 -3Z" />
<glyph unicode="M" glyph-name="M" horiz-adv-x="931" d="M358 -9Q326 126 289 260T210 528H225Q213 473 199 416T171 306T145 208Q130 153 128 123T138 79T184 58Q186 44 186 29T185 -3Q160 -1 134 -1T82 0Q54 0 26 0T-32 -3Q-32 12 -29 28T-20 58Q4 65 19 78T47
121T76 204Q94 262 109 315T137 421T163 529Q171 565 170 582T156 607T116 618Q113 632 113 647T115 679Q132 678 151 677T190 676T222 676Q245 676 273 676T329 679Q369 548 404 417T469 152H435Q513 282 586 413T728 679Q760 677 787 677T832 676Q853 676 876
676T929 679Q929 663 927 648T919 618Q893 614 879 603T858 568T848 501Q843 415 838 335T826 183Q821 134 823 109T838 73T874 58Q877 45 877 29T875 -3Q845 -1 808 -1T727 0Q689 0 651 0T577 -3Q577 12 579 28T588 58Q622 63 639 74T663 112T675 186Q683 268
689 354T700 529H718Q648 395 572 261T417 -3Q401 -7 387 -8T358 -9Z" />
<glyph unicode="N" glyph-name="N" horiz-adv-x="694" d="M26 58Q53 65 70 77T99 118T119 196L192 613L255 608L184 201Q175 148 175 120T191 79T239 58Q242 44 242 29T241 -3Q208 -1 178 -1T126 0Q101 0 74 0T15 -3Q16 32 26 58ZM118 679Q141 677 165 677T213
676Q237 676 261 676T306 679Q374 564 440 442T565 200L505 -9Q428 144 348 292T181 587Q172 605 160 610T119 618Q116 632 116 647T118 679ZM530 679Q559 677 587 677T636 676Q662 676 692 676T749 679Q748 664 745 647T737 618Q712 610 697 597T673 554T655 473L572
-1Q558 -6 542 -7T505 -9L538 162L590 478Q599 530 597 558T580 598T531 618Q529 632 529 647T530 679Z" />
<glyph unicode="O" glyph-name="O" horiz-adv-x="742" d="M343 -9Q238 -9 167 38T67 169T59 362Q72 435 106 494T191 597T305 662T440 685Q542 685 614 641T717 514T726 316Q708 222 656 149T523 33T343 -9ZM356 53Q411 53 454 87T527 183T572 325Q588 411 574
478T522 585T426 625Q375 625 333 592T260 501T215 368Q203 303 205 246T225 146T275 78T356 53Z" />
<glyph unicode="P" glyph-name="P" horiz-adv-x="617" d="M20 -3Q21 13 24 29T33 59Q61 62 75 71T97 102T112 166L174 526Q180 561 178 579T161 606T120 618Q114 646 118 679Q143 678 170 677T225 676T275 676Q310 676 356 677T455 679Q565 679 612 616T640 441Q629
379 592 332T497 258T365 232Q347 232 333 234T308 243Q307 254 310 272T320 300Q325 298 333 297T353 295Q404 295 443 332T495 442Q511 522 485 569T388 617Q373 617 359 615T327 607L340 627L261 165Q254 125 256 104T277 74T337 58Q341 44 341 29T340 -3Q301
-1 263 -1T185 0Q137 0 97 0T20 -3Z" />
<glyph unicode="Q" glyph-name="Q" horiz-adv-x="742" d="M343 -9Q238 -9 167 38T67 169T59 362Q72 435 106 494T191 597T305 662T440 685Q542 685 614 641T717 514T726 316Q708 222 656 149T523 33T343 -9ZM356 53Q411 53 454 87T527 183T572 325Q588 411 574
478T522 585T426 625Q375 625 333 592T260 501T215 368Q203 303 205 246T225 146T275 78T356 53ZM602 -219Q552 -219 519 -197T461 -121Q439 -71 409 -43T326 -8L440 16Q471 11 497 -1T550 -32T611 -82Q636 -104 650 -110T679 -116Q690 -116 700 -112T718 -99Q728
-106 737 -120T748 -149Q733 -168 711 -184T661 -209T602 -219Z" />
<glyph unicode="R" glyph-name="R" horiz-adv-x="701" d="M444 680Q521 680 570 655T641 586T652 483Q644 434 615 396T542 332T438 297L323 281Q308 281 295 281T271 282L282 352Q294 350 304 350T323 349Q367 349 402 365T462 413T494 488Q507 554 480 586T400
619Q383 619 365 616T330 606L343 649L258 151Q252 114 252 95T264 69T297 58Q299 44 299 29T299 -3Q272 -1 252 -1T213 0T165 0Q120 0 86 0T19 -3Q20 14 23 28T33 58Q59 61 73 70T96 101T111 166L173 526Q179 561 177 579T161 606T119 618Q116 632 116 647T118
679Q155 677 191 677T270 676Q303 676 352 678T444 680ZM425 317Q448 301 465 281T499 232T533 159Q547 124 561 111T590 97Q602 97 611 100T629 111Q639 103 648 90T660 62Q630 27 592 9T508 -9Q474 -9 452 5T413 50T381 129Q367 173 354 204T325 259T289 308L425
317Z" />
<glyph unicode="S" glyph-name="S" horiz-adv-x="498" d="M211 -9Q159 -9 122 -1T55 23T-3 62Q10 98 18 135T31 210Q52 215 75 216T118 212Q112 131 137 94T226 57Q263 57 292 78T326 133Q333 171 315 197T266 245T199 290T133 344T88 419T85 527Q94 578 126 613T209
666T321 685Q380 685 423 671T492 637Q487 600 484 563T481 494Q443 481 396 487Q395 558 370 589T298 621Q260 621 236 605T205 550Q200 518 213 494T252 450T309 411T371 370T426 320T461 255T464 169Q455 115 419 75T330 13T211 -9Z" />
<glyph unicode="T" glyph-name="T" horiz-adv-x="595" d="M274 618Q219 618 189 588T135 490Q112 490 95 493T62 508Q71 530 79 560T93 622T103 679Q137 678 176 677T264 676T372 676Q431 676 478 676T566 677T648 679Q643 641 640 594T640 501Q623 495 604 493T565
492Q562 560 543 589T466 618H274ZM300 645H450L365 156Q358 122 360 103T381 74T439 58Q442 44 442 28T441 -3Q409 -1 367 -1T278 0Q227 0 181 0T99 -3Q100 15 104 31T112 59Q151 64 171 72T200 103T217 166L300 645Z" />
<glyph unicode="U" glyph-name="U" horiz-adv-x="657" d="M320 -9Q183 -9 133 60T105 258L152 526Q158 562 157 580T144 606T106 618Q104 631 104 647T105 679Q141 677 174 677T246 676Q282 676 317 676T393 679Q393 663 391 648T382 618Q353 615 338 607T314
577T298 511L255 263Q235 155 263 107T354 59Q424 59 465 112T522 257L564 495Q572 543 572 566T559 600T519 618Q516 632 516 647T518 679Q550 677 575 677T621 676Q650 676 671 676T723 679Q723 663 720 648T712 618Q691 613 678 607T656 588T641 550T628 484L590
266Q573 170 540 109T454 20T320 -9Z" />
<glyph unicode="V" glyph-name="V" horiz-adv-x="673" d="M97 679Q121 678 146 677T194 676T234 676Q254 676 279 676T331 677T386 679Q386 662 383 646T375 617Q343 614 329 604T314 571T324 508Q348 420 368 333T407 145L386 158Q445 255 490 339T571 503Q590
545 593 567T585 601T544 618Q539 645 543 679Q566 677 594 677T648 676Q674 676 695 676T746 679Q745 647 735 618Q719 613 706 602T679 566T641 495Q580 374 514 252T369 0Q356 -6 338 -7T302 -8Q281 84 258 175T212 352T167 514Q156 556 147 577T127 606T98
618Q95 630 95 646T97 679Z" />
<glyph unicode="W" glyph-name="W" horiz-adv-x="970" d="M97 679Q123 678 148 677T196 676T232 676Q249 676 274 676T327 677T380 679Q379 661 377 646T369 617Q334 612 318 599T300 561T304 494Q312 449 321 395T339 281T355 161L323 166Q390 292 454 419T578
677Q607 685 641 682Q665 598 685 512T723 339T755 165L724 170Q764 248 799 326T866 483Q886 532 890 559T882 599T842 618Q836 646 841 679Q863 677 892 677T945 676Q971 676 995 676T1044 679Q1043 647 1032 618Q1015 613 1001 599T969 555T927 466Q877 350
824 233T711 -2Q698 -6 676 -6T636 -1Q622 83 606 167T570 336T527 504L558 500Q500 373 436 247T305 -2Q296 -5 282 -5T255 -5T232 0Q213 143 193 272T152 506Q144 553 138 575T124 605T99 618Q96 630 96 646T97 679Z" />
<glyph unicode="X" glyph-name="X" horiz-adv-x="652" d="M302 -3Q302 15 305 30T314 59Q344 63 355 73T361 111T333 195Q315 242 292 294T243 402T187 516Q166 558 153 578T129 606T99 618Q97 631 97 647T98 679Q125 678 151 677T201 676T240 676Q259 676 283
676T336 677T393 679Q392 662 389 646T381 617Q334 611 328 590T350 511Q376 455 401 398T450 286T492 183Q513 132 527 108T557 74T595 58Q598 46 598 31T596 -3Q569 -1 542 -1T492 0T452 0Q433 0 407 0T353 0T302 -3ZM-24 -3Q-23 29 -12 58Q13 63 33 72T75 100T124
150Q167 199 208 249T282 345L324 297Q299 263 271 228T211 154Q175 111 176 88T204 58Q207 44 207 29T205 -3Q176 -1 147 -1T94 0Q65 0 36 0T-24 -3ZM411 321L365 365Q393 396 423 434T479 508Q509 549 517 571T517 603T489 618Q483 646 488 679Q512 677 540 677T589
676Q615 676 642 676T698 679Q697 664 695 648T686 618Q665 615 649 607T615 578T568 519Q524 460 487 413T411 321Z" />
<glyph unicode="Y" glyph-name="Y" horiz-adv-x="594" d="M271 194Q249 279 223 361T167 524Q153 563 143 581T122 607T98 618Q95 631 95 646T97 679Q119 678 144 677T192 676T232 676Q251 676 276 676T329 677T385 679Q384 661 381 646T373 617Q327 611 317 594T320
538Q339 483 355 425T384 303L366 316Q399 367 429 419T490 528Q512 571 509 591T466 618Q460 645 465 679Q490 677 518 677T572 676Q598 676 619 676T668 679Q667 647 657 618Q646 615 635 608T610 584T572 528Q515 434 462 353T352 194H271ZM117 -3Q118 15 121
31T130 59Q169 65 189 73T218 103T235 166L256 286H405L382 156Q376 122 378 103T399 74T457 58Q460 44 460 28T459 -3Q427 -1 385 -1T296 0Q245 0 198 0T117 -3Z" />
<glyph unicode="Z" glyph-name="Z" horiz-adv-x="556" d="M-3 -3Q-10 9 -14 24T-18 59Q64 159 137 254T282 445T425 643L460 616H318Q280 616 254 605T206 563T163 476Q112 479 83 501Q94 525 103 556T121 619T133 679Q167 678 205 677T285 676T365 676Q400 676
436 676T509 677T580 679Q598 656 596 618Q523 516 452 419T306 226T151 27L129 61H263Q302 61 330 67T379 87T416 129T450 198Q496 190 528 165Q519 142 510 113T492 54T479 -3Q435 -1 392 -1T305 0T222 0Q177 0 139 0T67 0T-3 -3Z" />
<glyph unicode="[" glyph-name="bracketleft" horiz-adv-x="300" d="M146 742Q176 741 212 741T284 740T350 742Q356 729 356 713T352 681Q303 677 277 670T238 646T219 592L94 -120Q88 -153 93 -171T120 -196T186 -206Q193 -236 182 -268Q164 -267 137 -267T78
-266T17 -266T-32 -268L146 742Z" />
<glyph unicode="\" glyph-name="backslash" horiz-adv-x="299" d="M94 705Q127 722 163 714L254 0Q240 -7 222 -9T184 -9Q173 108 159 228T128 469T94 705Z" />
<glyph unicode="]" glyph-name="bracketright" horiz-adv-x="299" d="M157 -269Q126 -267 87 -267T10 -266T-58 -269Q-59 -254 -55 -236T-42 -206Q3 -204 27 -197T64 -173T82 -125L209 592Q215 628 210 645T182 670T111 681Q111 698 115 714T129 742Q159 741 194
741T266 740T335 742L157 -269Z" />
<glyph unicode="^" glyph-name="asciicircum" horiz-adv-x="479" d="M298 689Q312 697 330 698T362 695Q378 654 399 603T442 499T483 406Q474 400 455 396T422 394L323 631Q287 590 248 547T174 461T108 383Q77 394 69 429L298 689Z" />
<glyph unicode="_" glyph-name="underscore" horiz-adv-x="550" d="M-43 -148Q-43 -129 -41 -113T-30 -82H459Q459 -96 456 -115T446 -147Q390 -146 350 -146T275 -146T196 -146Q157 -146 122 -146T48 -147T-43 -148Z" />
<glyph unicode="`" glyph-name="grave" horiz-adv-x="300" d="M269 705Q276 666 287 623T313 539Q299 535 279 535T245 541Q224 580 199 620T140 700Q168 709 202 711T269 705Z" />
<glyph unicode="a" glyph-name="a" horiz-adv-x="552" d="M486 467Q497 460 502 450T508 423T501 375L453 166Q442 113 443 98T458 83Q468 83 477 88T501 105Q510 96 517 83T527 55Q498 25 464 8T390 -9Q360 -9 342 2T316 33T308 74T312 116Q315 129 319 143T329
171T341 200L374 368L336 452Q378 451 416 454T486 467ZM412 450L368 390Q355 397 336 400T300 404Q251 404 223 363T182 256Q166 179 173 139T208 99Q225 99 251 124T303 201T347 336L366 416L403 409L355 191H335Q313 131 282 86T214 16T132 -9Q92 -9 68 9T32
58T20 131T29 218Q43 288 79 344T175 434T315 467Q344 467 369 462T412 450Z" />
<glyph unicode="b" glyph-name="b" horiz-adv-x="537" d="M261 710Q279 698 285 683T285 633Q273 566 264 517T247 433T232 371T217 319T200 267L155 74L220 -9Q151 -9 101 9T17 61Q31 82 44 121T67 217L120 519Q128 561 128 580T114 606T68 612Q68 626 70 641T78
669Q125 672 174 683T261 710ZM124 8L168 68Q181 61 200 58T236 54Q286 54 313 96T354 202Q370 279 363 319T328 359Q311 359 285 334T233 257T189 122L170 42L132 49L181 267H201Q223 327 254 372T323 442T404 467Q444 467 468 449T504 400T516 327T507 240Q494
171 457 114T361 24T221 -9Q193 -9 168 -4T124 8Z" />
<glyph unicode="c" glyph-name="c" horiz-adv-x="421" d="M184 -9Q127 -9 93 11T42 67T24 145T32 235Q41 278 60 319T111 394T189 447T300 467Q334 467 365 459T417 437Q407 410 402 383T395 328Q365 316 327 323Q330 364 320 384T282 404Q256 404 236 386T203
336T182 261Q176 227 174 195T178 136T201 95T250 80Q281 80 309 93T361 124Q370 111 374 98T380 68Q337 27 290 9T184 -9Z" />
<glyph unicode="d" glyph-name="d" horiz-adv-x="554" d="M394 -9Q352 -9 333 10T311 57T314 113Q316 126 321 141T332 173T343 204L372 395Q365 419 366 452T372 519Q379 562 379 581T366 606T320 612Q320 626 322 641T330 669Q359 670 392 676T457 691T513 710Q531
698 537 683T537 633L457 180Q450 136 448 116T448 89T459 83Q467 83 477 88T503 105Q512 96 519 83T528 55Q500 26 466 9T394 -9ZM412 450L368 390Q355 397 336 400T300 404Q251 404 223 363T182 256Q166 179 173 139T208 99Q225 99 251 124T303 201T347 336L366
416L403 409L355 191H335Q313 131 282 86T214 16T132 -9Q92 -9 68 9T32 58T20 131T29 218Q43 288 79 344T175 434T315 467Q344 467 369 462T412 450Z" />
<glyph unicode="e" glyph-name="e" horiz-adv-x="445" d="M182 -9Q126 -9 92 11T41 65T24 142T30 228Q45 304 84 357T177 439T295 467Q346 467 378 450T423 406T429 346Q423 316 400 288T340 238T257 202T160 187L163 245Q225 247 269 271T323 338Q329 369 319
387T281 405Q251 405 223 370T181 257Q173 212 173 172T191 106T249 81Q278 81 305 92T356 124Q366 112 370 99T375 68Q336 31 291 11T182 -9Z" />
<glyph unicode="f" glyph-name="f" horiz-adv-x="357" d="M393 714Q434 714 464 708T509 693Q502 675 497 651T487 603T483 559Q476 555 464 553T437 549T410 548Q410 576 406 600T392 638T364 653Q344 653 329 636T301 575T272 448Q254 353 242 278T220 144Q208
63 184 -8T125 -133T46 -217T-50 -248Q-77 -248 -103 -238T-150 -205Q-151 -186 -147 -163T-135 -122Q-111 -132 -83 -136T-26 -141Q-5 -141 9 -136T34 -112T52 -55T69 46Q78 122 90 224T124 454Q135 518 155 566T208 648T286 697T393 714ZM49 448H132L128 374Q103
381 79 384T36 388Q36 404 39 420T49 448ZM256 448H367Q367 431 366 414T359 386Q330 386 304 384T252 374L256 448Z" />
<glyph unicode="g" glyph-name="g" horiz-adv-x="521" d="M149 -248Q102 -248 67 -235T1 -197Q0 -178 4 -156T17 -116Q44 -125 74 -132T136 -143T193 -147Q215 -147 229 -142T253 -121T270 -73T285 15Q290 48 301 87T330 172L340 198L373 389L329 451Q387 451
422 455T478 467Q494 457 498 442T497 395L449 119Q435 42 411 -24T349 -141T263 -219T149 -248ZM412 450L368 390Q355 397 336 400T300 404Q251 404 223 363T182 256Q166 179 173 139T208 99Q225 99 251 124T303 201T347 336L366 416L403 409L355 191H335Q313
131 282 86T214 16T132 -9Q92 -9 68 9T32 58T20 131T29 218Q43 288 79 344T175 434T315 467Q344 467 369 462T412 450Z" />
<glyph unicode="h" glyph-name="h" horiz-adv-x="587" d="M29 0L120 519Q128 561 128 580T114 606T68 612Q68 626 70 641T78 669Q125 672 174 683T261 710Q279 698 285 683T285 633Q272 563 263 513T246 426T232 362T218 312T203 264L220 263L173 0H29ZM431 467Q456
467 477 457T511 425T526 364T516 271L493 169Q484 129 481 111T481 87T492 82Q500 82 511 88T536 105Q545 96 552 83T561 55Q528 22 493 7T422 -9Q372 -9 352 12T332 73T345 162L366 253Q374 289 374 311T368 344T347 355Q330 355 308 338T263 287T221 203T189
88L185 224L227 311Q242 340 263 368T312 418T369 454T431 467Z" />
<glyph unicode="i" glyph-name="i" horiz-adv-x="299" d="M133 -9Q88 -9 67 11T45 69T54 154L84 270Q95 313 96 334T84 362T38 369Q37 383 39 398T47 426Q76 427 106 433T165 448T216 467Q242 455 251 429T247 352L202 162Q190 112 192 98T206 83Q214 83 224 88T248
105Q257 97 264 83T273 55Q242 23 206 7T133 -9ZM445 542Q410 542 392 563T380 620Q386 655 411 674T476 693Q511 693 530 671T542 613Q536 580 511 561T445 542Z" />
<glyph unicode="j" glyph-name="j" horiz-adv-x="273" d="M-85 -247Q-108 -228 -108 -190Q-46 -152 -8 -95T46 52L89 287Q95 321 94 338T80 362T35 369Q34 383 36 398T44 426Q73 427 105 433T167 448T220 467Q235 457 243 446T251 413T244 350L199 101Q185 27
163 -28T107 -123T26 -193T-85 -247ZM191 542Q156 542 138 563T126 620Q132 655 157 674T222 693Q257 693 276 671T288 613Q282 580 257 561T191 542Z" />
<glyph unicode="k" glyph-name="k" horiz-adv-x="540" d="M29 0L120 519Q127 561 127 580T114 606T68 612Q68 626 70 641T78 669Q125 672 174 683T261 710Q282 697 286 681T285 633Q273 563 264 517T248 438T232 375T211 307H212Q234 352 265 388T336 445T420
467Q471 467 498 437T517 357Q509 312 474 280T381 225T243 180L162 194L195 212Q280 229 325 254T378 321Q383 343 374 358T343 374Q322 374 295 354T245 297T207 209Q207 192 205 173T199 140L173 0H29ZM372 -9Q325 -9 303 14T262 77Q252 100 243 118T222 153T196
189L319 234Q337 216 348 203T371 173T398 129Q412 105 421 96T444 87Q454 87 462 91T481 105Q490 97 497 83T507 55Q479 27 445 9T372 -9Z" />
<glyph unicode="l" glyph-name="l" horiz-adv-x="301" d="M136 -9Q85 -9 65 16T45 83Q45 96 46 111T52 154T64 226T86 342T121 519Q129 560 129 580T115 606T69 612Q69 626 71 641T78 669Q107 670 140 676T206 691T262 710Q280 698 285 682T285 633Q266 523 246
415T204 203Q195 151 193 126T195 92T208 83Q216 83 226 88T250 105Q259 96 266 83T275 56Q247 26 210 9T136 -9Z" />
<glyph unicode="m" glyph-name="m" horiz-adv-x="879" d="M711 -9Q664 -9 644 11T624 69T636 162L650 223Q668 295 666 325T642 355Q620 355 590 327T530 239T484 89L467 0H326L367 207Q379 266 381 298T379 342T358 355Q335 355 305 327T246 239T199 88L183 0H38L90
276Q98 317 98 337T84 363T38 369Q38 382 40 398T48 426Q77 427 110 433T175 448T231 467Q249 459 255 444T257 402Q252 368 243 338T217 271H218L237 311Q250 340 272 367T321 417T379 453T438 467Q468 467 488 455T518 419T525 359Q523 341 519 319T504 271H505L522
308Q535 340 558 368T609 419T668 454T728 467Q791 467 809 414T806 264L783 169Q774 130 772 112T772 88T784 83Q793 83 803 88T828 105Q837 96 844 83T853 55Q821 21 785 6T711 -9Z" />
<glyph unicode="n" glyph-name="n" horiz-adv-x="596" d="M37 0L89 276Q97 317 97 337T84 363T38 369Q38 383 40 398T47 426Q76 427 109 433T175 448T231 467Q249 459 255 443T258 402Q252 365 243 338T220 278L198 88L182 0H37ZM440 467Q465 467 486 457T520
425T536 364T526 271L502 169Q493 129 490 111T490 87T501 82Q510 82 521 88T545 105Q554 96 561 83T571 55Q538 22 503 7T431 -9Q382 -9 362 12T342 73T354 162L375 253Q383 289 383 311T377 344T357 355Q340 355 318 338T273 287T230 203T198 88L195 224L237
311Q251 340 273 368T322 418T379 454T440 467Z" />
<glyph unicode="o" glyph-name="o" horiz-adv-x="536" d="M228 -9Q152 -9 104 21T38 106T31 230Q43 304 81 356T177 438T308 467Q383 467 430 438T497 356T505 232Q494 159 456 105T360 21T228 -9ZM239 52Q265 52 287 73T327 133T354 226Q368 306 352 356T294
406Q256 406 227 360T183 239Q174 181 177 139T197 75T239 52Z" />
<glyph unicode="p" glyph-name="p" horiz-adv-x="547" d="M-2 -244L90 275Q97 317 97 336T83 362T38 368Q38 382 40 397T47 425Q76 427 107 432T169 447T223 466Q240 455 245 439T247 396Q244 379 239 358T228 316T215 278L204 245L171 23Q177 -3 175 -41T160
-143L143 -244H-2ZM136 8L179 68Q192 62 211 58T247 54Q297 54 324 96T365 202Q382 280 375 319T339 359Q322 359 296 335T244 258T200 122L181 42L144 49L193 267H213Q234 328 265 373T334 442T416 467Q455 467 480 449T516 400T528 327T519 241Q505 171 469 115T373
25T232 -9Q204 -9 179 -4T136 8Z" />
<glyph unicode="q" glyph-name="q" horiz-adv-x="536" d="M375 388L311 467Q383 467 434 450T519 397Q506 376 493 337T469 241L384 -242H240L288 34Q294 70 307 108T335 185L343 219L375 388ZM412 450L368 390Q355 397 336 400T300 404Q251 404 223 363T182 256Q166
179 173 139T208 99Q225 99 251 124T303 201T347 336L366 416L403 409L355 191H335Q313 131 282 86T214 16T132 -9Q92 -9 68 9T32 58T20 131T29 218Q43 288 79 344T175 434T315 467Q344 467 369 462T412 450Z" />
<glyph unicode="r" glyph-name="r" horiz-adv-x="442" d="M221 467Q240 458 245 442T246 397Q242 372 230 334T201 258H203L226 310Q247 355 273 390T331 446T399 467Q429 467 451 452Q438 416 430 372T420 289Q405 282 384 279T341 276Q344 302 338 314T319 327Q309
327 294 314T260 268Q242 237 224 185T193 69L181 0H36L88 276Q96 317 96 337T83 363T38 369Q38 383 40 398T48 426Q77 428 108 433T168 448T221 467Z" />
<glyph unicode="s" glyph-name="s" horiz-adv-x="425" d="M260 467Q302 467 344 457T415 432Q397 378 396 308Q379 301 359 299T319 297Q318 352 302 379T251 407Q230 407 217 399T201 374Q196 353 208 335T242 298T288 261T333 219T364 168T368 101Q360 60 336
36T270 2T166 -9Q111 -9 69 2T0 31Q10 61 15 91T21 154Q55 167 98 163Q98 111 115 83T173 54Q196 54 208 63T224 86Q229 108 212 128T167 171T113 219T71 278T64 357Q72 398 98 422T165 456T260 467Z" />
<glyph unicode="t" glyph-name="t" horiz-adv-x="362" d="M174 -9Q121 -9 94 17T62 93T74 214L131 458Q142 503 148 535T155 589Q186 592 219 600T271 620Q289 615 294 598T295 551T280 477L221 224Q209 167 208 136T216 93T241 81Q255 81 271 90T301 113Q310
104 316 89T324 59Q310 42 285 26T231 1T174 -9ZM134 374Q108 381 84 384T41 388Q41 404 44 420T54 448H137L134 374ZM249 374L253 448H374Q374 431 373 414T365 386Q329 386 302 384T249 374Z" />
<glyph unicode="u" glyph-name="u" horiz-adv-x="592" d="M141 -9Q109 -9 90 6T63 50T58 120T73 213Q86 269 92 301T95 347T78 365T38 370Q38 383 40 398T47 426Q75 427 108 433T172 448T227 467Q240 459 246 450T253 420T245 361T221 253Q209 199 208 168T214
123T238 109Q259 109 288 136T345 221T391 373L408 458H550L503 207Q492 150 489 124T488 90T502 82Q516 82 541 105Q550 97 557 83T566 55Q538 26 501 9T428 -9Q387 -9 366 7T339 48T340 106Q342 117 346 129T356 154H355Q339 121 316 92T265 40T206 4T141 -9Z"
/>
<glyph unicode="v" glyph-name="v" horiz-adv-x="518" d="M445 467Q473 458 487 434T502 366Q502 318 477 265T390 145T220 -9Q202 -9 182 -6T149 6Q137 97 122 175T91 308Q82 344 68 357T14 368Q14 382 16 398T22 426Q44 428 72 435T126 450T168 467Q184 462
192 454T206 430T218 385Q232 330 242 275T261 167T274 68L254 87Q315 153 341 204T368 293Q368 330 350 348T296 368Q293 398 300 425Q322 428 350 435T404 451T445 467Z" />
<glyph unicode="w" glyph-name="w" horiz-adv-x="767" d="M168 467Q184 462 192 454T206 430T218 385Q232 330 242 275T261 167T274 68L252 87Q301 144 323 193T346 298T324 430Q379 441 416 467Q430 463 438 456T453 433T468 385Q483 331 496 276T519 168T536
69L513 88Q571 152 594 201T617 286Q617 328 598 347T543 368Q541 383 541 397T545 425Q567 428 594 435T648 451T688 467Q717 458 733 433T749 357Q749 314 726 262T648 144T495 -9Q477 -9 458 -6T425 6Q420 52 414 93T399 172T378 248L406 276Q401 234 388 198T353
128T298 61T220 -9Q202 -9 182 -6T149 6Q137 97 122 175T91 308Q82 344 68 357T14 368Q14 382 16 398T22 426Q44 428 72 435T126 450T168 467Z" />
<glyph unicode="x" glyph-name="x" horiz-adv-x="500" d="M203 467Q219 464 229 454T247 414Q255 380 261 351T270 299L297 267Q307 229 320 191T348 123Q359 100 369 93T393 86Q402 86 411 90T431 105Q442 94 447 82T456 55Q432 27 396 9T326 -9Q290 -9 267 4T230
42Q217 67 207 93T191 143L165 178Q158 212 149 246T130 310Q119 346 101 358T45 368Q44 384 46 399T53 426Q76 428 105 434T161 449T203 467ZM445 467Q462 467 475 464T500 452Q487 419 478 379T467 300Q435 284 396 287Q397 318 389 329T369 341Q358 341 347
329T324 298T302 254T285 203L239 238Q256 283 278 324T326 397T382 448T445 467ZM-1 150Q14 158 34 161T74 162Q74 136 80 126T98 116Q111 116 127 133T159 181T186 255L232 220Q215 175 193 134T145 61T89 10T26 -9Q10 -9 -1 -7T-24 4Q-17 24 -12 50T-4 102T-1
150Z" />
<glyph unicode="y" glyph-name="y" horiz-adv-x="511" d="M167 467Q181 463 189 456T204 434T216 392Q238 303 250 219T267 49L156 -90Q150 -9 141 61T119 193T90 308Q80 344 66 357T13 368Q12 385 14 399T21 426Q44 428 71 435T125 450T167 467ZM444 467Q472
458 485 436T499 382Q499 355 491 325T460 254T400 159T302 31Q231 -60 183 -115T101 -199T40 -238T-19 -248Q-48 -248 -74 -238T-122 -205Q-123 -186 -119 -163T-107 -122Q-83 -132 -56 -136T-3 -141Q26 -141 51 -134T103 -106T163 -46T244 57Q291 120 317 166T354
246T365 306Q365 334 349 350T295 368Q292 398 299 425Q322 428 350 435T404 451T444 467Z" />
<glyph unicode="z" glyph-name="z" horiz-adv-x="430" d="M3 -9Q-5 4 -9 21T-10 53Q90 132 166 206T293 346L295 339Q274 343 256 344T219 345Q190 345 172 340T141 321T114 280Q94 280 75 286T44 303Q64 340 77 378T96 458Q126 461 167 462T254 463Q299 463 337
462T407 458Q424 434 425 403Q391 354 347 301T249 194T136 90L142 103Q170 115 190 117T227 117T262 114Q291 114 303 126T329 169Q348 170 367 166T400 153Q388 126 381 89T372 19Q365 5 346 -2T281 -9Q233 -9 193 -5T105 0Q83 0 58 -2T3 -9Z" />
<glyph unicode="{" glyph-name="braceleft" horiz-adv-x="375" d="M417 748Q424 740 426 724T425 694Q373 683 348 657T314 594T305 516T303 433T288 355T243 294T148 259Q198 246 221 222T250 165T250 94T232 17T211 -60T200 -130T213 -187T264 -225Q265 -239
261 -253T246 -277Q181 -260 147 -234T100 -173T89 -100T100 -21T117 58T125 131T108 192T49 235Q49 247 52 260T63 283Q109 296 132 320T165 375T177 442T182 515T194 589T227 656T297 711T417 748Z" />
<glyph unicode="|" glyph-name="bar" horiz-adv-x="161" d="M-46 -245L138 710Q173 723 210 717Q159 469 114 232T26 -237Q10 -244 -8 -246T-46 -245Z" />
<glyph unicode="}" glyph-name="braceright" horiz-adv-x="374" d="M135 748Q198 727 231 701T277 643T289 579T279 513T264 446T257 384T274 329T330 285Q335 274 334 262T330 237Q284 223 259 196T222 132T205 53T195 -32T177 -115T141 -189T71 -246T-45 -277Q-52
-263 -52 -250T-46 -222Q-2 -216 22 -195T57 -143T69 -74T72 5T78 86T100 160T149 219T238 257Q178 272 153 299T125 359T134 431T159 508T178 583T171 648T112 699Q114 713 119 726T135 748Z" />
<glyph unicode="~" glyph-name="asciitilde" horiz-adv-x="550" d="M79 179Q66 185 57 193T42 216Q82 285 119 309T188 334Q214 334 238 324T285 301T332 278T379 268Q401 268 421 280T466 323Q478 320 489 312T508 294Q482 248 458 224T411 191T371 182Q345 182
322 192T276 217T231 241T183 252Q158 252 133 236T79 179Z" />
<glyph unicode="&#xa0;" glyph-name="uni00A0" horiz-adv-x="190" />
<glyph unicode="&#xa1;" glyph-name="exclamdown" horiz-adv-x="421" d="M77 -257Q59 -251 54 -235T60 -183Q74 -137 92 -69T131 75T167 223Q187 225 206 223T241 213Q232 132 226 59T217 -83T212 -219Q179 -224 142 -234T77 -257ZM237 467Q279 467 301 442T314
372Q309 342 287 324T227 306Q206 306 187 317T159 350T155 400Q161 431 181 449T237 467Z" />
<glyph unicode="&#xa2;" glyph-name="cent" horiz-adv-x="421" d="M184 -9Q127 -9 93 11T42 67T24 145T32 235Q41 278 60 319T111 394T189 447T300 467Q334 467 365 459T417 437Q407 410 402 383T395 328Q365 316 327 323Q330 364 320 384T282 404Q256 404 236
386T203 336T182 261Q176 227 174 195T178 136T201 95T250 80Q281 80 309 93T361 124Q370 111 374 98T380 68Q337 27 290 9T184 -9ZM212 -135Q195 -135 177 -131T144 -116L281 611Q301 611 317 608T349 594Q328 496 310 406T275 228T244 50T212 -135Z" />
<glyph unicode="&#xa3;" glyph-name="sterling" horiz-adv-x="568" d="M371 -9Q336 -9 313 -1T270 17T226 36T164 44Q128 44 96 32T26 -8Q11 1 2 17T-11 52Q51 95 84 136T128 237Q135 274 131 305T118 366T105 431T108 509Q117 557 150 597T239 661T372 685Q425
685 468 673T540 641Q531 609 526 575T518 503Q501 497 479 496T437 498Q442 565 418 593T349 621Q316 621 292 599T260 538Q254 503 259 477T273 428T287 377T286 312Q282 284 273 260T248 213T207 164T147 106L141 111Q176 134 201 146T249 163T294 168Q322 168
343 159T381 141T414 132Q444 132 460 165Q475 162 490 153T514 135Q504 94 485 62T437 10T371 -9ZM415 356Q416 337 412 318T397 286Q371 286 334 286T256 286T173 286T95 284T34 282Q31 326 51 356H415Z" />
<glyph unicode="&#xa4;" glyph-name="currency" horiz-adv-x="498" d="M267 434Q325 434 365 409T423 342T431 244Q418 169 365 124T237 78Q179 78 140 105T84 179T77 284Q89 351 141 392T267 434ZM258 377Q215 377 185 350T145 277Q134 216 162 175T246 134Q290
134 322 163T363 238Q373 299 344 338T258 377ZM447 75Q439 65 422 59T389 52L313 138L355 173L447 75ZM364 382L441 451Q456 447 470 439T491 419L399 345L364 382ZM58 428Q68 437 85 443T118 449L180 379L136 345L58 428ZM157 133L74 54Q59 55 44 63T19 82L118
168L157 133Z" />
<glyph unicode="&#xa5;" glyph-name="yen" horiz-adv-x="594" d="M271 194Q249 279 223 361T167 524Q153 563 143 581T122 607T98 618Q95 631 95 646T97 679Q119 678 144 677T192 676T232 676Q251 676 276 676T329 677T385 679Q384 661 381 646T373 617Q327 611
317 594T320 538Q339 483 355 425T384 303L366 316Q399 367 429 419T490 528Q512 571 509 591T466 618Q460 645 465 679Q490 677 518 677T572 676Q598 676 619 676T668 679Q667 647 657 618Q646 615 635 608T610 584T572 528Q515 434 462 353T352 194H271ZM117
-3Q118 15 121 31T130 59Q169 65 189 73T218 103T235 166L256 286H405L382 156Q376 122 378 103T399 74T457 58Q460 44 460 28T459 -3Q427 -1 385 -1T296 0Q245 0 198 0T117 -3ZM91 178Q90 198 93 217T107 252H554Q554 234 550 216T534 182Q465 182 393 182T246
181T91 178ZM107 316Q107 336 112 355T128 390H312L343 320Q284 320 244 320T173 319T107 316ZM384 320L434 390H572Q573 371 569 353T554 320H384Z" />
<glyph unicode="&#xa6;" glyph-name="brokenbar" horiz-adv-x="162" d="M-46 -245L34 166Q68 179 105 169Q83 66 64 -35T26 -237Q10 -244 -8 -246T-46 -245ZM63 319L138 710Q173 723 210 717Q189 617 170 519T135 323Q101 309 63 319Z" />
<glyph unicode="&#xa7;" glyph-name="section" horiz-adv-x="523" d="M336 714Q384 714 421 705T490 676Q483 645 479 611T475 545Q461 540 442 538T405 536Q405 581 395 606T365 641T318 652Q292 652 274 639T249 599Q242 567 260 542T311 494T380 448T448 394T495
323T500 227Q491 180 463 146T394 89T303 54L256 100Q284 106 306 119T344 151T365 194Q372 231 355 258T307 309T243 357T179 412T136 483T132 579Q141 621 170 651T242 698T336 714ZM25 240Q34 287 62 321T131 378T222 413L268 367Q241 361 218 348T180 316T160
272Q153 236 170 209T217 158T282 110T345 55T389 -16T392 -112Q385 -154 355 -184T282 -231T189 -248Q141 -248 104 -239T35 -209Q42 -179 46 -144T50 -78Q64 -73 82 -71T119 -69Q120 -114 130 -139T159 -174T206 -185Q233 -185 251 -172T275 -132Q282 -100 264
-75T213 -28T144 19T76 73T30 144T25 240Z" />
<glyph unicode="&#xa8;" glyph-name="dieresis" horiz-adv-x="300" d="M565 514Q527 514 511 536T501 596Q508 630 528 645T578 660Q615 660 632 639T641 580Q628 514 565 514ZM372 514Q334 514 318 539T310 600Q317 630 335 645T383 660Q421 660 438 638T447
577Q440 548 421 531T372 514Z" />
<glyph unicode="&#xa9;" glyph-name="copyright" horiz-adv-x="742" d="M341 -114Q230 -114 155 -65T48 71T41 270Q61 367 112 435T238 538T404 574Q487 574 550 546T653 465T706 343T702 189Q683 93 633 26T508 -78T341 -114ZM346 -56Q466 -56 543 10T644 191Q664
283 642 356T557 473T397 517Q277 517 200 450T98 269Q78 177 101 104T186 -13T346 -56ZM321 16Q267 16 235 34T187 84T171 155T179 238Q187 277 205 314T253 382T326 430T430 448Q463 448 492 441T540 421Q532 397 527 372T520 322Q491 311 456 318Q459 354 449
372T413 391Q388 391 369 375T338 329T317 261Q312 230 310 201T314 148T336 110T382 96Q412 96 439 107T487 136Q496 125 500 113T505 85Q464 48 420 32T321 16Z" />
<glyph unicode="&#xaa;" glyph-name="ordfeminine" horiz-adv-x="509" d="M463 717Q476 708 479 695T475 649L441 498Q434 463 435 454T445 445Q451 445 458 448T473 459Q480 452 485 436T489 407Q467 385 441 373T388 360Q363 360 349 369T330 394T325 427T331
461H325L375 644L345 705Q376 705 407 707T463 717ZM402 704L369 649Q360 654 347 656T321 659Q292 659 271 632T237 548Q229 505 232 482T250 458Q262 458 279 475T314 527T346 620L361 679L408 673L367 546Q352 494 324 452T261 385T188 360Q160 360 143 374T117
411T108 465T114 529Q125 582 152 624T224 692T329 717Q351 717 369 714T402 704Z" />
<glyph unicode="&#xab;" glyph-name="guillemotleft" horiz-adv-x="467" d="M215 415Q232 416 246 409T268 391Q252 374 231 350T190 302T156 258Q163 237 173 211T196 159T217 114Q208 99 198 89T172 70Q142 111 109 150T45 222Q46 241 52 258T67 287Q109 320
144 350T215 415ZM399 407Q416 408 430 401T453 383Q437 366 419 344T384 300T353 258Q359 237 366 213T383 166T402 122Q393 107 383 97T357 78Q328 118 300 153T241 222Q242 241 248 258T263 287Q304 320 336 348T399 407Z" />
<glyph unicode="&#xac;" glyph-name="logicalnot" horiz-adv-x="550" d="M401 114L445 322L478 290Q374 290 275 290T66 288Q66 303 69 323T77 358H515L470 126Q437 106 401 114Z" />
<glyph unicode="&#xad;" glyph-name="uni00AD" horiz-adv-x="369" d="M44 216Q47 245 52 264T66 300H334Q333 275 330 256T317 219Q268 219 199 219T44 216Z" />
<glyph unicode="&#xae;" glyph-name="registered" horiz-adv-x="534" d="M337 378Q279 378 232 405T156 479T128 584Q128 643 156 690T231 764T336 792Q395 792 441 765T515 690T543 584Q543 526 516 479T442 405T337 378ZM360 483Q356 504 349 523T329 558L362
570Q381 558 393 536T413 489Q389 480 360 483ZM336 425Q382 425 418 446T474 503T495 584Q495 630 474 666T418 724T336 745Q291 745 255 724T197 667T176 584Q176 540 197 504T254 446T336 425ZM251 484L283 682Q303 688 323 690T356 692Q397 692 414 676T426
628Q421 600 402 580T343 556V551H301L305 587Q314 584 321 583T335 581Q351 581 361 590T375 620Q379 642 371 651T349 660Q344 660 338 659T326 656L299 484Q274 479 251 484Z" />
<glyph unicode="&#xaf;" glyph-name="overscore" horiz-adv-x="300" d="M296 575Q296 586 298 602T305 631H661Q661 620 659 607T652 580Q562 580 474 580T296 575Z" />
<glyph unicode="&#xb0;" glyph-name="degree" horiz-adv-x="402" d="M279 699Q350 699 386 659T410 553Q400 497 358 466T253 434Q183 434 148 476T125 587Q134 641 176 670T279 699ZM272 651Q252 651 237 635T217 592Q208 544 220 514T260 484Q281 484 297 503T319
552Q327 597 314 624T272 651Z" />
<glyph unicode="&#xb1;" glyph-name="plusminus" horiz-adv-x="550" d="M224 146Q237 220 248 281T269 395T286 496Q305 501 323 501T356 499L294 146Q266 133 224 146ZM24 40Q23 57 25 76T33 106H463Q466 88 464 73T453 41Q423 41 400 41T354 42T308 42T253 42Q191
42 140 42T24 40ZM103 281Q103 301 105 318T113 348H476Q481 311 467 282Q434 283 411 283T363 282T294 282Q262 282 216 282T103 281Z" />
<glyph unicode="&#xb2;" glyph-name="uni00B2" horiz-adv-x="358" d="M292 762Q355 762 383 740T404 677Q397 642 371 618T284 557Q260 542 237 527T189 493L173 506H268Q292 506 304 508T322 519T333 544Q348 544 362 543T384 538Q379 509 375 482T372 434Q366
422 355 416T330 409Q306 409 270 409T199 410Q165 410 132 410T78 409Q72 420 72 434T74 465Q100 487 129 508T195 556Q229 582 248 599T275 632T287 663Q291 686 282 700T249 714Q227 714 211 696T180 626Q161 626 148 628T122 635Q128 653 133 681T139 728Q169
744 205 753T292 762Z" />
<glyph unicode="&#xb3;" glyph-name="uni00B3" horiz-adv-x="351" d="M159 291Q115 291 88 302T45 334Q46 341 51 349T66 364Q77 351 95 346T131 341Q179 341 212 367T252 439Q257 470 246 486T214 510T166 520Q163 529 165 542T172 565Q202 565 225 577T263 612T284
665Q289 693 280 704T247 716Q215 716 200 696T170 626Q156 626 140 629T112 640Q117 660 122 686T128 738Q158 751 191 756T258 762Q337 762 370 732T391 648Q378 592 336 572T241 551L237 556Q309 556 343 523T364 428Q350 366 297 329T159 291Z" />
<glyph unicode="&#xb4;" glyph-name="acute" horiz-adv-x="300" d="M204 715Q242 723 278 719T335 702Q292 663 253 619T183 530Q148 534 121 552Q139 581 155 611T184 668T204 715Z" />
<glyph unicode="&#xb5;" glyph-name="uni00B5" horiz-adv-x="596" d="M8 -248Q-4 -240 -9 -228T-17 -201Q-11 -189 -6 -175T6 -136T21 -63L81 240Q91 286 94 311T94 349T76 364T38 369Q38 382 40 398T47 426Q76 427 109 433T174 448T230 467Q244 458 250 449T257
419T248 360T225 255Q207 176 211 144T238 111Q260 111 290 138T348 223T394 374L410 458H554L508 207Q497 151 494 125T493 91T504 83Q514 83 522 88T545 105Q554 98 561 84T571 55Q542 26 506 9T432 -9Q394 -9 376 7T354 48T357 106Q359 114 362 127T372 154H371Q360
119 343 90T305 38T262 4T218 -9Q192 -9 179 8T162 53T163 113L168 107L138 -46Q130 -89 129 -123T133 -187Q97 -195 69 -209T8 -248Z" />
<glyph unicode="&#xb6;" glyph-name="paragraph" horiz-adv-x="571" d="M395 680Q436 680 472 679T543 677Q564 677 583 677T625 679Q625 664 622 648T613 618Q586 615 572 607T552 581T537 527Q519 433 505 357T480 211T456 73T432 -74T404 -248Q387 -249 369
-248T334 -241L488 634L500 611Q474 616 448 618T384 621Q308 621 273 595T226 507Q216 453 227 419T264 370T319 354H344L335 303Q320 299 305 298T270 297Q158 297 110 350T78 498Q88 555 126 595T231 658T395 680ZM373 647H443Q413 491 387 347T337 57T287 -249Q269
-250 251 -247T218 -236L373 647Z" />
<glyph unicode="&#xb7;" glyph-name="middot" horiz-adv-x="255" d="M134 196Q93 196 71 221T57 291Q63 322 85 339T144 357Q167 357 185 346T213 314T217 264Q211 233 191 215T134 196Z" />
<glyph unicode="&#xb8;" glyph-name="cedilla" horiz-adv-x="300" d="M-14 -242Q-17 -233 -17 -222T-13 -200Q21 -201 46 -190T75 -157Q80 -132 64 -119T22 -106Q8 -88 13 -63L85 16H159L100 -50Q137 -60 151 -86T158 -153Q149 -197 104 -220T-14 -242Z" />
<glyph unicode="&#xb9;" glyph-name="uni00B9" horiz-adv-x="282" d="M70 408Q71 421 74 433T81 454Q102 457 113 462T131 483T144 527L166 642Q175 686 168 699T132 713Q130 724 130 735T133 760Q145 759 166 759T209 758T241 758Q256 758 277 758T319 758T350
760Q350 747 347 736T338 713Q319 712 308 707T290 687T277 642L255 528Q250 498 250 482T260 461T288 454Q290 443 290 432T287 408Q274 409 252 409T209 409T178 410Q166 410 145 410T104 409T70 408Z" />
<glyph unicode="&#xba;" glyph-name="ordmasculine" horiz-adv-x="466" d="M324 717Q406 717 445 668T469 533Q455 448 400 403T257 357Q177 357 139 408T117 546Q133 627 185 672T324 717ZM312 660Q285 660 267 631T238 547Q231 510 232 481T243 434T270 417Q296
417 315 447T345 532Q356 591 346 625T312 660Z" />
<glyph unicode="&#xbb;" glyph-name="guillemotright" horiz-adv-x="474" d="M314 414Q336 385 365 353T426 289Q432 274 432 256T427 223Q381 187 335 148T246 71Q220 89 213 120Q242 147 274 179T329 240Q321 263 309 290T284 345T257 397Q272 407 285 411T314
414ZM130 406Q153 376 176 348T229 289Q235 274 235 256T230 223Q184 187 145 153T65 78Q38 97 31 128Q60 155 86 183T134 240Q124 273 109 311T74 389Q88 400 102 403T130 406Z" />
<glyph unicode="&#xbc;" glyph-name="onequarter" horiz-adv-x="900" d="M329 730Q344 726 348 717T348 685L294 411Q288 376 290 360T307 338T353 330Q354 319 353 306T349 279Q328 280 302 280T250 280T201 281Q170 281 130 281T60 279Q62 292 65 305T74 330Q108
333 127 338T156 359T174 411L206 574Q212 603 209 616T186 634T121 639Q124 654 128 668T138 695Q197 697 242 705T329 730ZM201 -8Q182 -6 165 3T141 23L785 715Q802 714 818 704T843 684L201 -8ZM569 -2Q573 13 576 29T586 55Q622 56 639 65T663 106L715 376L752
380L554 164L552 199H827Q843 199 850 196T862 182Q853 171 845 152T831 114Q749 114 688 114T583 112T506 108Q487 135 496 179Q542 225 585 269T672 357T758 450Q771 452 785 452T814 449T838 443L773 106Q768 83 771 73T784 59T813 55Q815 42 813 27T808 -2Q793
-1 771 -1T726 0T687 0Q671 0 649 0T606 0T569 -2Z" />
<glyph unicode="&#xbd;" glyph-name="onehalf" horiz-adv-x="989" d="M329 730Q344 726 348 717T348 685L294 411Q288 376 290 360T307 338T353 330Q354 319 353 306T349 279Q328 280 302 280T250 280T201 281Q170 281 130 281T60 279Q62 292 65 305T74 330Q108
333 127 338T156 359T174 411L206 574Q212 603 209 616T186 634T121 639Q124 654 128 668T138 695Q197 697 242 705T329 730ZM201 -8Q182 -6 165 3T141 23L785 715Q802 714 818 704T843 684L201 -8ZM584 -2Q576 12 575 29T578 68Q610 100 635 122T682 163T728 202Q769
235 790 262T818 324Q824 354 815 370T782 387Q757 387 740 365T705 279Q682 279 664 281T627 291Q638 320 645 354T657 421Q692 435 734 442T822 449Q872 449 905 439T953 407T960 345Q952 301 920 267T832 195Q802 175 782 161T743 132T700 95L702 117H789Q818
117 833 121T858 136T876 171Q892 172 911 171T942 164Q933 124 928 88T923 27Q913 12 900 5T864 -2Q857 -2 838 -2T792 -1T736 0Q705 0 670 0T584 -2Z" />
<glyph unicode="&#xbe;" glyph-name="threequarters" horiz-adv-x="918" d="M286 730Q368 730 406 699T435 614Q426 568 380 544T258 519L253 524Q338 524 380 492T411 401Q399 340 340 308T183 275Q140 275 106 284T42 314Q49 334 53 356T58 403Q71 407 91 407T128
400Q126 361 136 345T181 329Q216 329 240 348T270 400Q277 434 250 453T166 476Q160 506 176 533Q230 535 261 558T300 623Q305 651 295 663T262 676Q234 676 218 656T188 592Q170 594 151 601T122 621Q128 640 131 662T134 708Q169 721 206 725T286 730ZM219
-8Q200 -6 183 3T159 23L803 715Q820 714 836 704T861 684L219 -8ZM587 -2Q591 13 594 29T604 55Q640 56 657 65T681 106L733 376L770 380L572 164L570 199H845Q861 199 868 196T880 182Q871 171 863 152T849 114Q767 114 706 114T601 112T524 108Q505 135 514
179Q560 225 603 269T690 357T776 450Q789 452 803 452T832 449T856 443L791 106Q786 83 789 73T802 59T831 55Q833 42 831 27T826 -2Q811 -1 789 -1T744 0T705 0Q689 0 667 0T624 0T587 -2Z" />
<glyph unicode="&#xbf;" glyph-name="questiondown" horiz-adv-x="534" d="M334 -214Q305 -233 262 -245T172 -258Q79 -258 34 -219T1 -112Q9 -73 30 -46T79 4T135 50T185 102T215 172Q217 186 217 203T216 235Q230 243 246 246T279 249Q297 236 306 201T307 124Q299
85 283 58T246 11T205 -28T169 -68T149 -117Q142 -155 154 -176T194 -198Q212 -198 227 -186T257 -146T287 -67Q312 -67 328 -70T359 -83Q347 -123 342 -151T334 -214ZM285 467Q327 467 349 442T362 372Q356 341 334 324T275 306Q253 306 235 317T207 349T203 399Q209
431 229 449T285 467Z" />
<glyph unicode="&#xc0;" glyph-name="Agrave" horiz-adv-x="699" d="M-32 -3Q-31 14 -29 29T-20 58Q-2 63 11 73T41 104T81 164Q109 210 140 262T206 375T285 510T380 676Q395 681 409 681T439 682Q468 588 493 497T541 321T580 165Q590 121 598 99T617 70T641
58Q644 46 644 30T643 -3Q625 -1 599 -1T548 0T507 0Q495 0 476 0T436 0T395 -1T360 -3Q361 15 363 30T371 58Q414 65 424 81T425 137Q409 202 393 267T358 397Q348 429 342 466T334 545H357Q338 503 320 466T283 395Q250 333 215 271T143 148Q126 120 123 102T130
73T165 58Q167 44 167 29T165 -3Q152 -2 133 -2T93 -1T57 0Q31 0 9 0T-32 -3ZM141 183L166 247H420L427 191Q382 191 334 191T236 189T141 183ZM474 740Q458 735 434 735T392 741Q382 758 366 779T332 822T295 862Q323 870 357 872T424 869Q432 840 444 805T474
740Z" />
<glyph unicode="&#xc1;" glyph-name="Aacute" horiz-adv-x="699" d="M-32 -3Q-31 14 -29 29T-20 58Q-2 63 11 73T41 104T81 164Q109 210 140 262T206 375T285 510T380 676Q395 681 409 681T439 682Q468 588 493 497T541 321T580 165Q590 121 598 99T617 70T641
58Q644 46 644 30T643 -3Q625 -1 599 -1T548 0T507 0Q495 0 476 0T436 0T395 -1T360 -3Q361 15 363 30T371 58Q414 65 424 81T425 137Q409 202 393 267T358 397Q348 429 342 466T334 545H357Q338 503 320 466T283 395Q250 333 215 271T143 148Q126 120 123 102T130
73T165 58Q167 44 167 29T165 -3Q152 -2 133 -2T93 -1T57 0Q31 0 9 0T-32 -3ZM141 183L166 247H420L427 191Q382 191 334 191T236 189T141 183ZM419 731Q401 733 384 739T351 756Q369 777 385 800T412 845T430 880Q441 881 452 882T473 883Q502 883 527 879T568
867Q527 831 488 796T419 731Z" />
<glyph unicode="&#xc2;" glyph-name="Acircumflex" horiz-adv-x="699" d="M-32 -3Q-31 14 -29 29T-20 58Q-2 63 11 73T41 104T81 164Q109 210 140 262T206 375T285 510T380 676Q395 681 409 681T439 682Q468 588 493 497T541 321T580 165Q590 121 598 99T617 70T641
58Q644 46 644 30T643 -3Q625 -1 599 -1T548 0T507 0Q495 0 476 0T436 0T395 -1T360 -3Q361 15 363 30T371 58Q414 65 424 81T425 137Q409 202 393 267T358 397Q348 429 342 466T334 545H357Q338 503 320 466T283 395Q250 333 215 271T143 148Q126 120 123 102T130
73T165 58Q167 44 167 29T165 -3Q152 -2 133 -2T93 -1T57 0Q31 0 9 0T-32 -3ZM141 183L166 247H420L427 191Q382 191 334 191T236 189T141 183ZM295 724Q279 732 270 748T258 778Q287 793 317 811T375 848T426 886Q442 888 458 887T489 880Q515 852 546 822T614
756Q606 745 590 739T555 731Q527 749 496 765T433 792Q410 783 386 771T338 747T295 724Z" />
<glyph unicode="&#xc3;" glyph-name="Atilde" horiz-adv-x="699" d="M-32 -3Q-31 14 -29 29T-20 58Q-2 63 11 73T41 104T81 164Q109 210 140 262T206 375T285 510T380 676Q395 681 409 681T439 682Q468 588 493 497T541 321T580 165Q590 121 598 99T617 70T641
58Q644 46 644 30T643 -3Q625 -1 599 -1T548 0T507 0Q495 0 476 0T436 0T395 -1T360 -3Q361 15 363 30T371 58Q414 65 424 81T425 137Q409 202 393 267T358 397Q348 429 342 466T334 545H357Q338 503 320 466T283 395Q250 333 215 271T143 148Q126 120 123 102T130
73T165 58Q167 44 167 29T165 -3Q152 -2 133 -2T93 -1T57 0Q31 0 9 0T-32 -3ZM141 183L166 247H420L427 191Q382 191 334 191T236 189T141 183ZM479 741Q455 741 439 747T409 762T381 777T349 784Q326 784 305 772T265 743Q255 758 251 773T249 809Q284 844 320
856T385 868Q417 868 438 858T477 838T516 828Q536 828 553 839T583 865Q596 859 607 850T625 827Q593 783 556 762T479 741Z" />
<glyph unicode="&#xc4;" glyph-name="Adieresis" horiz-adv-x="699" d="M-32 -3Q-31 14 -29 29T-20 58Q-2 63 11 73T41 104T81 164Q109 210 140 262T206 375T285 510T380 676Q395 681 409 681T439 682Q468 588 493 497T541 321T580 165Q590 121 598 99T617 70T641
58Q644 46 644 30T643 -3Q625 -1 599 -1T548 0T507 0Q495 0 476 0T436 0T395 -1T360 -3Q361 15 363 30T371 58Q414 65 424 81T425 137Q409 202 393 267T358 397Q348 429 342 466T334 545H357Q338 503 320 466T283 395Q250 333 215 271T143 148Q126 120 123 102T130
73T165 58Q167 44 167 29T165 -3Q152 -2 133 -2T93 -1T57 0Q31 0 9 0T-32 -3ZM141 183L166 247H420L427 191Q382 191 334 191T236 189T141 183ZM322 725Q286 725 268 748T254 808Q257 836 275 851T324 866Q361 866 380 844T393 785Q382 725 322 725ZM539 725Q503
725 485 746T469 803Q476 866 544 866Q579 866 598 845T612 787Q604 725 539 725Z" />
<glyph unicode="&#xc5;" glyph-name="Aring" horiz-adv-x="699" d="M-32 -3Q-31 14 -29 29T-20 58Q-2 63 11 73T41 104T81 164Q109 210 140 262T206 375T285 510T380 676Q395 681 409 681T439 682Q468 588 493 497T541 321T580 165Q590 121 598 99T617 70T641
58Q644 46 644 30T643 -3Q625 -1 599 -1T548 0T507 0Q495 0 476 0T436 0T395 -1T360 -3Q361 15 363 30T371 58Q414 65 424 81T425 137Q409 202 393 267T358 397Q348 429 342 466T334 545H357Q338 503 320 466T283 395Q250 333 215 271T143 148Q126 120 123 102T130
73T165 58Q167 44 167 29T165 -3Q152 -2 133 -2T93 -1T57 0Q31 0 9 0T-32 -3ZM141 183L166 247H420L427 191Q382 191 334 191T236 189T141 183ZM428 717Q364 717 336 745T316 810Q324 847 357 866T442 885Q486 885 512 874T548 841T553 793Q546 756 514 737T428
717ZM431 763Q446 763 457 772T473 798Q477 813 469 828T439 843Q421 843 410 832T395 803Q392 787 401 775T431 763Z" />
<glyph unicode="&#xc6;" glyph-name="AE" horiz-adv-x="888" d="M252 347H503L498 292Q432 292 382 291T292 288T218 281L252 347ZM704 425Q721 428 738 429T774 428Q768 401 763 374T752 307Q747 276 745 248T741 195Q722 196 706 199T674 209Q676 236 670 254T646
282T592 292H535L545 347H599Q653 347 675 363T704 425ZM898 679Q892 640 890 593T890 506Q857 496 815 496Q813 535 804 561T768 601T684 615H589L625 676Q683 676 730 676T818 677T898 679ZM786 196Q809 193 825 186T858 166Q844 133 831 89T810 -3Q780 -1 742
-1T661 0T579 0L610 61H619Q666 61 696 75T747 119T786 196ZM506 676H630L544 163Q536 119 539 97T559 68T610 61L579 0Q548 0 511 0T436 0T364 -1T302 -3Q302 13 305 28T315 59Q344 62 358 71T380 103T396 171L451 481Q462 543 475 590T506 676ZM367 525Q394 563
387 588T332 618Q329 632 329 648T331 679Q376 678 408 677T468 676T521 676Q500 637 478 600T429 521T365 427T279 306T162 143Q132 101 133 83T165 58Q167 44 167 29T165 -3Q152 -2 133 -2T93 -1T57 0Q31 0 9 0T-32 -3Q-31 14 -29 29T-20 58Q-2 63 13 71T46 98T93
152Q131 201 171 256T260 378T367 525Z" />
<glyph unicode="&#xc7;" glyph-name="Ccedilla" horiz-adv-x="624" d="M663 629Q650 595 643 557T630 476Q595 463 554 471Q562 535 551 567T515 612T452 625Q385 625 335 586T254 481T212 340Q201 266 214 205T269 106T385 69Q428 69 471 81T558 117Q568 107
572 93T578 63Q525 26 467 9T342 -9Q236 -9 167 37T69 164T56 346Q69 433 107 497T200 603T319 665T448 685Q510 685 562 672T663 629ZM210 -242Q207 -233 207 -222T211 -200Q245 -201 270 -190T299 -157Q304 -132 288 -119T246 -106Q232 -88 237 -63L309 16H383L324
-50Q361 -60 375 -86T382 -153Q373 -197 328 -220T210 -242Z" />
<glyph unicode="&#xc8;" glyph-name="Egrave" horiz-adv-x="612" d="M19 -3Q20 13 22 28T32 59Q60 62 74 71T97 103T113 171L173 520Q180 558 177 578T160 606T118 618Q116 632 116 647T118 679Q144 678 175 678T237 677T297 676T347 676L261 163Q253 119 255
97T275 68T326 61L296 0Q265 0 228 0T153 0T80 -1T19 -3ZM533 -3Q504 -1 465 -1T383 0T296 0L326 61H343Q390 61 420 75T471 119T510 196Q532 193 549 186T582 166Q568 133 555 89T533 -3ZM467 218Q448 219 432 222T400 232Q402 259 396 276T372 303T319 313H254L264
373H326Q379 373 401 387T430 448Q448 451 465 452T501 451Q494 424 489 397T478 330Q474 299 472 271T467 218ZM539 496Q537 535 528 561T492 601T408 615H305L342 676Q403 676 451 676T541 677T622 679Q616 640 614 593T614 506Q581 496 539 496ZM438 740Q422
735 398 735T356 741Q346 758 330 779T296 822T259 862Q287 870 321 872T388 869Q396 840 408 805T438 740Z" />
<glyph unicode="&#xc9;" glyph-name="Eacute" horiz-adv-x="612" d="M19 -3Q20 13 22 28T32 59Q60 62 74 71T97 103T113 171L173 520Q180 558 177 578T160 606T118 618Q116 632 116 647T118 679Q144 678 175 678T237 677T297 676T347 676L261 163Q253 119 255
97T275 68T326 61L296 0Q265 0 228 0T153 0T80 -1T19 -3ZM533 -3Q504 -1 465 -1T383 0T296 0L326 61H343Q390 61 420 75T471 119T510 196Q532 193 549 186T582 166Q568 133 555 89T533 -3ZM467 218Q448 219 432 222T400 232Q402 259 396 276T372 303T319 313H254L264
373H326Q379 373 401 387T430 448Q448 451 465 452T501 451Q494 424 489 397T478 330Q474 299 472 271T467 218ZM539 496Q537 535 528 561T492 601T408 615H305L342 676Q403 676 451 676T541 677T622 679Q616 640 614 593T614 506Q581 496 539 496ZM383 731Q365
733 348 739T315 756Q333 777 349 800T376 845T394 880Q405 881 416 882T437 883Q466 883 491 879T532 867Q491 831 452 796T383 731Z" />
<glyph unicode="&#xca;" glyph-name="Ecircumflex" horiz-adv-x="612" d="M19 -3Q20 13 22 28T32 59Q60 62 74 71T97 103T113 171L173 520Q180 558 177 578T160 606T118 618Q116 632 116 647T118 679Q144 678 175 678T237 677T297 676T347 676L261 163Q253 119
255 97T275 68T326 61L296 0Q265 0 228 0T153 0T80 -1T19 -3ZM533 -3Q504 -1 465 -1T383 0T296 0L326 61H343Q390 61 420 75T471 119T510 196Q532 193 549 186T582 166Q568 133 555 89T533 -3ZM467 218Q448 219 432 222T400 232Q402 259 396 276T372 303T319 313H254L264
373H326Q379 373 401 387T430 448Q448 451 465 452T501 451Q494 424 489 397T478 330Q474 299 472 271T467 218ZM539 496Q537 535 528 561T492 601T408 615H305L342 676Q403 676 451 676T541 677T622 679Q616 640 614 593T614 506Q581 496 539 496ZM259 724Q243
732 234 748T222 778Q251 793 281 811T339 848T390 886Q406 888 422 887T453 880Q479 852 510 822T578 756Q570 745 554 739T519 731Q491 749 460 765T397 792Q374 783 350 771T302 747T259 724Z" />
<glyph unicode="&#xcb;" glyph-name="Edieresis" horiz-adv-x="612" d="M19 -3Q20 13 22 28T32 59Q60 62 74 71T97 103T113 171L173 520Q180 558 177 578T160 606T118 618Q116 632 116 647T118 679Q144 678 175 678T237 677T297 676T347 676L261 163Q253 119 255
97T275 68T326 61L296 0Q265 0 228 0T153 0T80 -1T19 -3ZM533 -3Q504 -1 465 -1T383 0T296 0L326 61H343Q390 61 420 75T471 119T510 196Q532 193 549 186T582 166Q568 133 555 89T533 -3ZM467 218Q448 219 432 222T400 232Q402 259 396 276T372 303T319 313H254L264
373H326Q379 373 401 387T430 448Q448 451 465 452T501 451Q494 424 489 397T478 330Q474 299 472 271T467 218ZM539 496Q537 535 528 561T492 601T408 615H305L342 676Q403 676 451 676T541 677T622 679Q616 640 614 593T614 506Q581 496 539 496ZM287 725Q251
725 233 748T219 808Q222 836 240 851T289 866Q326 866 345 844T358 785Q347 725 287 725ZM504 725Q468 725 450 746T434 803Q441 866 509 866Q544 866 563 845T577 787Q569 725 504 725Z" />
<glyph unicode="&#xcc;" glyph-name="Igrave" horiz-adv-x="387" d="M173 524Q179 561 177 579T161 606T119 618Q117 631 117 647T118 679Q150 677 186 677T263 676Q298 676 335 676T411 679Q410 663 408 648T399 618Q373 614 359 606T336 577T321 513L259 155Q252
117 254 98T269 71T309 58Q312 44 312 29T311 -3Q274 -1 241 -1T168 0Q126 0 88 0T19 -3Q20 15 23 29T33 58Q59 62 73 69T95 96T109 153L173 524ZM583 740Q567 735 543 735T501 741Q491 758 475 779T441 822T404 862Q432 870 466 872T533 869Q541 840 553 805T583
740Z" />
<glyph unicode="&#xcd;" glyph-name="Iacute" horiz-adv-x="387" d="M173 524Q179 561 177 579T161 606T119 618Q117 631 117 647T118 679Q150 677 186 677T263 676Q298 676 335 676T411 679Q410 663 408 648T399 618Q373 614 359 606T336 577T321 513L259 155Q252
117 254 98T269 71T309 58Q312 44 312 29T311 -3Q274 -1 241 -1T168 0Q126 0 88 0T19 -3Q20 15 23 29T33 58Q59 62 73 69T95 96T109 153L173 524ZM272 731Q254 733 237 739T204 756Q222 777 238 800T265 845T283 880Q294 881 305 882T326 883Q355 883 380 879T421
867Q380 831 341 796T272 731Z" />
<glyph unicode="&#xce;" glyph-name="Icircumflex" horiz-adv-x="387" d="M173 524Q179 561 177 579T161 606T119 618Q117 631 117 647T118 679Q150 677 186 677T263 676Q298 676 335 676T411 679Q410 663 408 648T399 618Q373 614 359 606T336 577T321 513L259
155Q252 117 254 98T269 71T309 58Q312 44 312 29T311 -3Q274 -1 241 -1T168 0Q126 0 88 0T19 -3Q20 15 23 29T33 58Q59 62 73 69T95 96T109 153L173 524ZM435 706Q417 716 406 729T391 761Q425 783 462 814T533 874Q552 875 569 875T597 872Q618 842 642 809T693
737Q680 726 659 720T621 713Q600 733 579 748T535 777Q508 761 482 743T435 706Z" />
<glyph unicode="&#xcf;" glyph-name="Idieresis" horiz-adv-x="387" d="M173 524Q179 561 177 579T161 606T119 618Q117 631 117 647T118 679Q150 677 186 677T263 676Q298 676 335 676T411 679Q410 663 408 648T399 618Q373 614 359 606T336 577T321 513L259
155Q252 117 254 98T269 71T309 58Q312 44 312 29T311 -3Q274 -1 241 -1T168 0Q126 0 88 0T19 -3Q20 15 23 29T33 58Q59 62 73 69T95 96T109 153L173 524ZM439 723Q403 723 385 745T372 797Q377 820 396 838T453 856Q496 856 511 833T520 776Q515 754 493 739T439
723ZM631 723Q589 723 572 746T563 804Q568 829 590 842T643 856Q679 856 698 835T711 782Q706 759 688 741T631 723Z" />
<glyph unicode="&#xd0;" glyph-name="Eth" horiz-adv-x="734" d="M62 305Q62 325 65 345T74 377H424Q424 356 422 339T413 307Q372 308 331 308T248 308Q204 308 174 308T117 306T62 305ZM407 678Q464 678 517 669T614 638T688 577T727 477T721 329Q707 249 675
192T597 98T501 39T396 9T295 0H169L180 61H322Q358 61 394 72T465 114T526 199T568 337Q584 421 576 476T541 562T478 606T397 619Q379 619 364 617T331 608L278 676Q307 676 339 677T407 678ZM118 679Q141 678 171 678T234 677T295 676T346 676L259 159Q251 117
253 96T272 68T323 61L295 0Q268 0 231 0T154 0T78 -1T18 -3Q19 13 22 28T31 58Q59 61 73 70T96 102T112 171L173 526Q180 563 177 582T159 608T119 618Q116 634 116 650T118 679Z" />
<glyph unicode="&#xd1;" glyph-name="Ntilde" horiz-adv-x="694" d="M26 58Q53 65 70 77T99 118T119 196L192 613L255 608L184 201Q175 148 175 120T191 79T239 58Q242 44 242 29T241 -3Q208 -1 178 -1T126 0Q101 0 74 0T15 -3Q16 32 26 58ZM118 679Q141 677 165
677T213 676Q237 676 261 676T306 679Q374 564 440 442T565 200L505 -9Q428 144 348 292T181 587Q172 605 160 610T119 618Q116 632 116 647T118 679ZM530 679Q559 677 587 677T636 676Q662 676 692 676T749 679Q748 664 745 647T737 618Q712 610 697 597T673 554T655
473L572 -1Q558 -6 542 -7T505 -9L538 162L590 478Q599 530 597 558T580 598T531 618Q529 632 529 647T530 679ZM510 741Q486 741 470 747T440 762T412 777T380 784Q357 784 336 772T296 743Q286 758 282 773T280 809Q315 844 351 856T416 868Q448 868 469 858T508
838T547 828Q567 828 584 839T614 865Q627 859 638 850T656 827Q624 783 587 762T510 741Z" />
<glyph unicode="&#xd2;" glyph-name="Ograve" horiz-adv-x="742" d="M343 -9Q238 -9 167 38T67 169T59 362Q72 435 106 494T191 597T305 662T440 685Q542 685 614 641T717 514T726 316Q708 222 656 149T523 33T343 -9ZM356 53Q411 53 454 87T527 183T572 325Q588
411 574 478T522 585T426 625Q375 625 333 592T260 501T215 368Q203 303 205 246T225 146T275 78T356 53ZM511 740Q495 735 471 735T429 741Q419 758 403 779T369 822T332 862Q360 870 394 872T461 869Q469 840 481 805T511 740Z" />
<glyph unicode="&#xd3;" glyph-name="Oacute" horiz-adv-x="742" d="M343 -9Q238 -9 167 38T67 169T59 362Q72 435 106 494T191 597T305 662T440 685Q542 685 614 641T717 514T726 316Q708 222 656 149T523 33T343 -9ZM356 53Q411 53 454 87T527 183T572 325Q588
411 574 478T522 585T426 625Q375 625 333 592T260 501T215 368Q203 303 205 246T225 146T275 78T356 53ZM457 731Q439 733 422 739T389 756Q407 777 423 800T450 845T468 880Q479 881 490 882T511 883Q540 883 565 879T606 867Q565 831 526 796T457 731Z" />
<glyph unicode="&#xd4;" glyph-name="Ocircumflex" horiz-adv-x="742" d="M343 -9Q238 -9 167 38T67 169T59 362Q72 435 106 494T191 597T305 662T440 685Q542 685 614 641T717 514T726 316Q708 222 656 149T523 33T343 -9ZM356 53Q411 53 454 87T527 183T572
325Q588 411 574 478T522 585T426 625Q375 625 333 592T260 501T215 368Q203 303 205 246T225 146T275 78T356 53ZM332 724Q316 732 307 748T295 778Q324 793 354 811T412 848T463 886Q479 888 495 887T526 880Q552 852 583 822T651 756Q643 745 627 739T592 731Q564
749 533 765T470 792Q447 783 423 771T375 747T332 724Z" />
<glyph unicode="&#xd5;" glyph-name="Otilde" horiz-adv-x="742" d="M343 -9Q238 -9 167 38T67 169T59 362Q72 435 106 494T191 597T305 662T440 685Q542 685 614 641T717 514T726 316Q708 222 656 149T523 33T343 -9ZM356 53Q411 53 454 87T527 183T572 325Q588
411 574 478T522 585T426 625Q375 625 333 592T260 501T215 368Q203 303 205 246T225 146T275 78T356 53ZM517 741Q493 741 477 747T447 762T419 777T387 784Q364 784 343 772T303 743Q293 758 289 773T287 809Q322 844 358 856T423 868Q455 868 476 858T515 838T554
828Q574 828 591 839T621 865Q634 859 645 850T663 827Q631 783 594 762T517 741Z" />
<glyph unicode="&#xd6;" glyph-name="Odieresis" horiz-adv-x="742" d="M343 -9Q238 -9 167 38T67 169T59 362Q72 435 106 494T191 597T305 662T440 685Q542 685 614 641T717 514T726 316Q708 222 656 149T523 33T343 -9ZM356 53Q411 53 454 87T527 183T572 325Q588
411 574 478T522 585T426 625Q375 625 333 592T260 501T215 368Q203 303 205 246T225 146T275 78T356 53ZM360 725Q324 725 306 748T292 808Q295 836 313 851T362 866Q399 866 418 844T431 785Q420 725 360 725ZM577 725Q541 725 523 746T507 803Q514 866 582 866Q617
866 636 845T650 787Q642 725 577 725Z" />
<glyph unicode="&#xd7;" glyph-name="multiply" horiz-adv-x="550" d="M75 20Q54 19 34 26T7 48L483 496Q503 494 523 486T549 465Q511 431 463 387T362 295T258 197T159 103T75 20ZM414 20Q379 68 337 124T249 239T159 355T74 460Q88 474 106 482T142 491L484
51Q471 38 452 29T414 20Z" />
<glyph unicode="&#xd8;" glyph-name="Oslash" horiz-adv-x="742" d="M343 -9Q238 -9 167 38T67 169T59 362Q72 435 106 494T191 597T305 662T440 685Q542 685 614 641T717 514T726 316Q708 222 656 149T523 33T343 -9ZM356 53Q411 53 454 87T527 183T572 325Q588
411 574 478T522 585T426 625Q375 625 333 592T260 501T215 368Q203 303 205 246T225 146T275 78T356 53ZM114 -9Q93 -9 75 0T50 25L668 685Q715 685 734 656Q656 578 576 496T418 328T263 158T114 -9Z" />
<glyph unicode="&#xd9;" glyph-name="Ugrave" horiz-adv-x="657" d="M320 -9Q183 -9 133 60T105 258L152 526Q158 562 157 580T144 606T106 618Q104 631 104 647T105 679Q141 677 174 677T246 676Q282 676 317 676T393 679Q393 663 391 648T382 618Q353 615 338
607T314 577T298 511L255 263Q235 155 263 107T354 59Q424 59 465 112T522 257L564 495Q572 543 572 566T559 600T519 618Q516 632 516 647T518 679Q550 677 575 677T621 676Q650 676 671 676T723 679Q723 663 720 648T712 618Q691 613 678 607T656 588T641 550T628
484L590 266Q573 170 540 109T454 20T320 -9ZM513 740Q497 735 473 735T431 741Q421 758 405 779T371 822T334 862Q362 870 396 872T463 869Q471 840 483 805T513 740Z" />
<glyph unicode="&#xda;" glyph-name="Uacute" horiz-adv-x="657" d="M320 -9Q183 -9 133 60T105 258L152 526Q158 562 157 580T144 606T106 618Q104 631 104 647T105 679Q141 677 174 677T246 676Q282 676 317 676T393 679Q393 663 391 648T382 618Q353 615 338
607T314 577T298 511L255 263Q235 155 263 107T354 59Q424 59 465 112T522 257L564 495Q572 543 572 566T559 600T519 618Q516 632 516 647T518 679Q550 677 575 677T621 676Q650 676 671 676T723 679Q723 663 720 648T712 618Q691 613 678 607T656 588T641 550T628
484L590 266Q573 170 540 109T454 20T320 -9ZM458 731Q440 733 423 739T390 756Q408 777 424 800T451 845T469 880Q480 881 491 882T512 883Q541 883 566 879T607 867Q566 831 527 796T458 731Z" />
<glyph unicode="&#xdb;" glyph-name="Ucircumflex" horiz-adv-x="657" d="M320 -9Q183 -9 133 60T105 258L152 526Q158 562 157 580T144 606T106 618Q104 631 104 647T105 679Q141 677 174 677T246 676Q282 676 317 676T393 679Q393 663 391 648T382 618Q353 615
338 607T314 577T298 511L255 263Q235 155 263 107T354 59Q424 59 465 112T522 257L564 495Q572 543 572 566T559 600T519 618Q516 632 516 647T518 679Q550 677 575 677T621 676Q650 676 671 676T723 679Q723 663 720 648T712 618Q691 613 678 607T656 588T641
550T628 484L590 266Q573 170 540 109T454 20T320 -9ZM334 724Q318 732 309 748T297 778Q326 793 356 811T414 848T465 886Q481 888 497 887T528 880Q554 852 585 822T653 756Q645 745 629 739T594 731Q566 749 535 765T472 792Q449 783 425 771T377 747T334 724Z"
/>
<glyph unicode="&#xdc;" glyph-name="Udieresis" horiz-adv-x="657" d="M320 -9Q183 -9 133 60T105 258L152 526Q158 562 157 580T144 606T106 618Q104 631 104 647T105 679Q141 677 174 677T246 676Q282 676 317 676T393 679Q393 663 391 648T382 618Q353 615
338 607T314 577T298 511L255 263Q235 155 263 107T354 59Q424 59 465 112T522 257L564 495Q572 543 572 566T559 600T519 618Q516 632 516 647T518 679Q550 677 575 677T621 676Q650 676 671 676T723 679Q723 663 720 648T712 618Q691 613 678 607T656 588T641
550T628 484L590 266Q573 170 540 109T454 20T320 -9ZM362 725Q326 725 308 748T294 808Q297 836 315 851T364 866Q401 866 420 844T433 785Q422 725 362 725ZM579 725Q543 725 525 746T509 803Q516 866 584 866Q619 866 638 845T652 787Q644 725 579 725Z" />
<glyph unicode="&#xdd;" glyph-name="Yacute" horiz-adv-x="594" d="M271 194Q249 279 223 361T167 524Q153 563 143 581T122 607T98 618Q95 631 95 646T97 679Q119 678 144 677T192 676T232 676Q251 676 276 676T329 677T385 679Q384 661 381 646T373 617Q327
611 317 594T320 538Q339 483 355 425T384 303L366 316Q399 367 429 419T490 528Q512 571 509 591T466 618Q460 645 465 679Q490 677 518 677T572 676Q598 676 619 676T668 679Q667 647 657 618Q646 615 635 608T610 584T572 528Q515 434 462 353T352 194H271ZM117
-3Q118 15 121 31T130 59Q169 65 189 73T218 103T235 166L256 286H405L382 156Q376 122 378 103T399 74T457 58Q460 44 460 28T459 -3Q427 -1 385 -1T296 0Q245 0 198 0T117 -3ZM413 731Q395 733 378 739T345 756Q363 777 379 800T406 845T424 880Q435 881 446
882T467 883Q496 883 521 879T562 867Q521 831 482 796T413 731Z" />
<glyph unicode="&#xde;" glyph-name="Thorn" horiz-adv-x="631" d="M19 -3Q20 15 23 29T33 58Q59 62 73 69T95 96T109 153L173 524Q179 561 177 579T161 606T119 618Q117 631 117 647T118 679Q150 677 186 677T263 676Q298 676 335 676T411 679Q410 663 408 648T399
618Q373 614 359 606T336 577T321 513L259 155Q253 119 257 99T280 71T337 58Q339 44 340 29T339 -3Q298 -1 261 -1T178 0Q133 0 93 0T19 -3ZM360 150Q338 150 322 153T293 163Q293 178 296 193T305 218Q313 216 321 215T339 214Q371 214 399 227T447 270T477 345Q489
408 463 445T370 483Q354 483 340 481T305 472L276 541Q294 541 321 541T375 542T421 543Q487 543 529 527T594 484T622 421T622 347Q612 291 578 247T488 176T360 150Z" />
<glyph unicode="&#xdf;" glyph-name="germandbls" horiz-adv-x="651" d="M49 448H133L129 373Q104 382 80 385T36 388Q36 404 39 420T49 448ZM418 714Q493 714 536 694T595 641T603 567Q596 532 580 509T543 470T504 442T470 415T451 381Q445 356 461 335T502
294T552 249T590 192T596 115Q585 53 537 23T397 -8Q347 -8 310 2T247 31Q257 61 261 91T267 154Q302 167 345 163Q345 109 358 81T405 52Q427 52 441 64T459 96Q464 122 448 144T407 187T358 233T319 289T313 361Q318 388 335 405T374 436T419 462T459 496T483
547Q489 579 480 602T448 639T391 653Q360 653 339 635T303 571T272 448Q261 390 252 336T235 235T221 148Q209 67 185 -5T125 -131T46 -217T-51 -248Q-77 -248 -102 -238T-150 -205Q-151 -186 -147 -163T-135 -122Q-107 -133 -81 -137T-26 -141Q-4 -141 11 -135T36
-108T54 -51T69 46Q75 92 83 158T101 300T124 453Q135 511 153 558T204 641T288 695T418 714Z" />
<glyph unicode="&#xe0;" glyph-name="agrave" horiz-adv-x="552" d="M486 467Q497 460 502 450T508 423T501 375L453 166Q442 113 443 98T458 83Q468 83 477 88T501 105Q510 96 517 83T527 55Q498 25 464 8T390 -9Q360 -9 342 2T316 33T308 74T312 116Q315 129
319 143T329 171T341 200L374 368L336 452Q378 451 416 454T486 467ZM412 450L368 390Q355 397 336 400T300 404Q251 404 223 363T182 256Q166 179 173 139T208 99Q225 99 251 124T303 201T347 336L366 416L403 409L355 191H335Q313 131 282 86T214 16T132 -9Q92
-9 68 9T32 58T20 131T29 218Q43 288 79 344T175 434T315 467Q344 467 369 462T412 450ZM331 705Q338 666 349 623T375 539Q361 535 341 535T307 541Q286 580 261 620T202 700Q230 709 264 711T331 705Z" />
<glyph unicode="&#xe1;" glyph-name="aacute" horiz-adv-x="552" d="M486 467Q497 460 502 450T508 423T501 375L453 166Q442 113 443 98T458 83Q468 83 477 88T501 105Q510 96 517 83T527 55Q498 25 464 8T390 -9Q360 -9 342 2T316 33T308 74T312 116Q315 129
319 143T329 171T341 200L374 368L336 452Q378 451 416 454T486 467ZM412 450L368 390Q355 397 336 400T300 404Q251 404 223 363T182 256Q166 179 173 139T208 99Q225 99 251 124T303 201T347 336L366 416L403 409L355 191H335Q313 131 282 86T214 16T132 -9Q92
-9 68 9T32 58T20 131T29 218Q43 288 79 344T175 434T315 467Q344 467 369 462T412 450ZM368 715Q406 723 442 719T499 702Q456 663 417 619T347 530Q312 534 285 552Q303 581 319 611T348 668T368 715Z" />
<glyph unicode="&#xe2;" glyph-name="acircumflex" horiz-adv-x="552" d="M486 467Q497 460 502 450T508 423T501 375L453 166Q442 113 443 98T458 83Q468 83 477 88T501 105Q510 96 517 83T527 55Q498 25 464 8T390 -9Q360 -9 342 2T316 33T308 74T312 116Q315
129 319 143T329 171T341 200L374 368L336 452Q378 451 416 454T486 467ZM412 450L368 390Q355 397 336 400T300 404Q251 404 223 363T182 256Q166 179 173 139T208 99Q225 99 251 124T303 201T347 336L366 416L403 409L355 191H335Q313 131 282 86T214 16T132
-9Q92 -9 68 9T32 58T20 131T29 218Q43 288 79 344T175 434T315 467Q344 467 369 462T412 450ZM209 520Q193 530 184 547T175 578Q205 597 235 619T295 666T349 712Q364 715 380 713T411 705Q436 669 465 633T529 556Q520 545 504 537T469 526Q441 549 411 569T350
605Q327 594 302 580T252 550T209 520Z" />
<glyph unicode="&#xe3;" glyph-name="atilde" horiz-adv-x="552" d="M486 467Q497 460 502 450T508 423T501 375L453 166Q442 113 443 98T458 83Q468 83 477 88T501 105Q510 96 517 83T527 55Q498 25 464 8T390 -9Q360 -9 342 2T316 33T308 74T312 116Q315 129
319 143T329 171T341 200L374 368L336 452Q378 451 416 454T486 467ZM412 450L368 390Q355 397 336 400T300 404Q251 404 223 363T182 256Q166 179 173 139T208 99Q225 99 251 124T303 201T347 336L366 416L403 409L355 191H335Q313 131 282 86T214 16T132 -9Q92
-9 68 9T32 58T20 131T29 218Q43 288 79 344T175 434T315 467Q344 467 369 462T412 450ZM409 545Q386 545 369 552T338 569T310 586T276 594Q252 594 228 582T180 549Q170 561 166 574T163 605Q208 653 243 668T302 683Q325 683 342 676T374 660T402 643T432 636Q454
636 474 648T510 678Q522 674 532 665T549 643Q510 590 477 568T409 545Z" />
<glyph unicode="&#xe4;" glyph-name="adieresis" horiz-adv-x="552" d="M486 467Q497 460 502 450T508 423T501 375L453 166Q442 113 443 98T458 83Q468 83 477 88T501 105Q510 96 517 83T527 55Q498 25 464 8T390 -9Q360 -9 342 2T316 33T308 74T312 116Q315
129 319 143T329 171T341 200L374 368L336 452Q378 451 416 454T486 467ZM412 450L368 390Q355 397 336 400T300 404Q251 404 223 363T182 256Q166 179 173 139T208 99Q225 99 251 124T303 201T347 336L366 416L403 409L355 191H335Q313 131 282 86T214 16T132
-9Q92 -9 68 9T32 58T20 131T29 218Q43 288 79 344T175 434T315 467Q344 467 369 462T412 450ZM441 514Q403 514 387 536T377 596Q384 630 404 645T454 660Q491 660 508 639T517 580Q504 514 441 514ZM248 514Q210 514 194 539T186 600Q193 630 211 645T259 660Q297
660 314 638T323 577Q316 548 297 531T248 514Z" />
<glyph unicode="&#xe5;" glyph-name="aring" horiz-adv-x="552" d="M486 467Q497 460 502 450T508 423T501 375L453 166Q442 113 443 98T458 83Q468 83 477 88T501 105Q510 96 517 83T527 55Q498 25 464 8T390 -9Q360 -9 342 2T316 33T308 74T312 116Q315 129
319 143T329 171T341 200L374 368L336 452Q378 451 416 454T486 467ZM412 450L368 390Q355 397 336 400T300 404Q251 404 223 363T182 256Q166 179 173 139T208 99Q225 99 251 124T303 201T347 336L366 416L403 409L355 191H335Q313 131 282 86T214 16T132 -9Q92
-9 68 9T32 58T20 131T29 218Q43 288 79 344T175 434T315 467Q344 467 369 462T412 450ZM346 521Q282 521 256 553T239 630Q249 672 283 695T369 719Q413 719 438 703T472 662T475 609Q466 568 433 545T346 521ZM352 570Q367 570 379 580T396 613Q400 634 393 654T363
674Q345 674 334 660T318 623Q315 600 323 585T352 570Z" />
<glyph unicode="&#xe6;" glyph-name="ae" horiz-adv-x="698" d="M152 -9Q106 -9 78 10T36 61T21 133T29 218Q45 293 82 349T178 436T313 467Q347 467 379 461T444 437L382 385Q361 396 344 400T311 404Q254 404 224 365T178 256Q161 178 174 138T230 98Q247 98
267 104T312 125L333 66Q295 35 249 13T152 -9ZM444 -9Q386 -9 352 11T303 65T288 141T297 228Q314 305 349 358T436 439T552 467Q603 467 634 450T678 404T683 341Q674 297 638 254T545 172T417 104L404 158Q453 179 489 204T547 261T576 333Q582 368 572 386T537
404Q516 404 500 392T472 361T452 319T438 271Q432 240 430 208T432 147T454 101T504 83Q530 83 558 94T608 124Q618 112 622 99T627 68Q590 34 543 13T444 -9Z" />
<glyph unicode="&#xe7;" glyph-name="ccedilla" horiz-adv-x="421" d="M184 -9Q127 -9 93 11T42 67T24 145T32 235Q41 278 60 319T111 394T189 447T300 467Q334 467 365 459T417 437Q407 410 402 383T395 328Q365 316 327 323Q330 364 320 384T282 404Q256 404
236 386T203 336T182 261Q176 227 174 195T178 136T201 95T250 80Q281 80 309 93T361 124Q370 111 374 98T380 68Q337 27 290 9T184 -9ZM88 -242Q85 -233 85 -222T89 -200Q123 -201 148 -190T177 -157Q182 -132 166 -119T124 -106Q110 -88 115 -63L187 16H261L202
-50Q239 -60 253 -86T260 -153Q251 -197 206 -220T88 -242Z" />
<glyph unicode="&#xe8;" glyph-name="egrave" horiz-adv-x="445" d="M182 -9Q126 -9 92 11T41 65T24 142T30 228Q45 304 84 357T177 439T295 467Q346 467 378 450T423 406T429 346Q423 316 400 288T340 238T257 202T160 187L163 245Q225 247 269 271T323 338Q329
369 319 387T281 405Q251 405 223 370T181 257Q173 212 173 172T191 106T249 81Q278 81 305 92T356 124Q366 112 370 99T375 68Q336 31 291 11T182 -9ZM287 705Q294 666 305 623T331 539Q317 535 297 535T263 541Q242 580 217 620T158 700Q186 709 220 711T287
705Z" />
<glyph unicode="&#xe9;" glyph-name="eacute" horiz-adv-x="445" d="M182 -9Q126 -9 92 11T41 65T24 142T30 228Q45 304 84 357T177 439T295 467Q346 467 378 450T423 406T429 346Q423 316 400 288T340 238T257 202T160 187L163 245Q225 247 269 271T323 338Q329
369 319 387T281 405Q251 405 223 370T181 257Q173 212 173 172T191 106T249 81Q278 81 305 92T356 124Q366 112 370 99T375 68Q336 31 291 11T182 -9ZM324 715Q362 723 398 719T455 702Q412 663 373 619T303 530Q268 534 241 552Q259 581 275 611T304 668T324
715Z" />
<glyph unicode="&#xea;" glyph-name="ecircumflex" horiz-adv-x="445" d="M182 -9Q126 -9 92 11T41 65T24 142T30 228Q45 304 84 357T177 439T295 467Q346 467 378 450T423 406T429 346Q423 316 400 288T340 238T257 202T160 187L163 245Q225 247 269 271T323
338Q329 369 319 387T281 405Q251 405 223 370T181 257Q173 212 173 172T191 106T249 81Q278 81 305 92T356 124Q366 112 370 99T375 68Q336 31 291 11T182 -9ZM165 520Q149 530 140 547T131 578Q161 597 191 619T251 666T305 712Q320 715 336 713T367 705Q392
669 421 633T485 556Q476 545 460 537T425 526Q397 549 367 569T306 605Q283 594 258 580T208 550T165 520Z" />
<glyph unicode="&#xeb;" glyph-name="edieresis" horiz-adv-x="445" d="M182 -9Q126 -9 92 11T41 65T24 142T30 228Q45 304 84 357T177 439T295 467Q346 467 378 450T423 406T429 346Q423 316 400 288T340 238T257 202T160 187L163 245Q225 247 269 271T323 338Q329
369 319 387T281 405Q251 405 223 370T181 257Q173 212 173 172T191 106T249 81Q278 81 305 92T356 124Q366 112 370 99T375 68Q336 31 291 11T182 -9ZM397 514Q359 514 343 536T333 596Q340 630 360 645T410 660Q447 660 464 639T473 580Q460 514 397 514ZM204
514Q166 514 150 539T142 600Q149 630 167 645T215 660Q253 660 270 638T279 577Q272 548 253 531T204 514Z" />
<glyph unicode="&#xec;" glyph-name="igrave" horiz-adv-x="299" d="M133 -9Q88 -9 67 11T45 69T54 154L84 270Q95 313 96 334T84 362T38 369Q37 383 39 398T47 426Q76 427 106 433T165 448T216 467Q242 455 251 429T247 352L202 162Q190 112 192 98T206 83Q214
83 224 88T248 105Q257 97 264 83T273 55Q242 23 206 7T133 -9ZM437 705Q444 666 455 623T481 539Q467 535 447 535T413 541Q392 580 367 620T308 700Q336 709 370 711T437 705Z" />
<glyph unicode="&#xed;" glyph-name="iacute" horiz-adv-x="299" d="M133 -9Q88 -9 67 11T45 69T54 154L84 270Q95 313 96 334T84 362T38 369Q37 383 39 398T47 426Q76 427 106 433T165 448T216 467Q242 455 251 429T247 352L202 162Q190 112 192 98T206 83Q214
83 224 88T248 105Q257 97 264 83T273 55Q242 23 206 7T133 -9ZM219 715Q257 723 293 719T350 702Q307 663 268 619T198 530Q163 534 136 552Q154 581 170 611T199 668T219 715Z" />
<glyph unicode="&#xee;" glyph-name="icircumflex" horiz-adv-x="299" d="M133 -9Q88 -9 67 11T45 69T54 154L84 270Q95 313 96 334T84 362T38 369Q37 383 39 398T47 426Q76 427 106 433T165 448T216 467Q242 455 251 429T247 352L202 162Q190 112 192 98T206
83Q214 83 224 88T248 105Q257 97 264 83T273 55Q242 23 206 7T133 -9ZM355 514Q338 524 327 538T312 572Q347 600 385 638T460 713Q478 714 495 714T523 709Q543 671 565 630T613 543Q600 534 579 529T541 524Q521 548 501 570T460 608Q431 585 405 561T355 514Z"
/>
<glyph unicode="&#xef;" glyph-name="idieresis" horiz-adv-x="299" d="M133 -9Q88 -9 67 11T45 69T54 154L84 270Q95 313 96 334T84 362T38 369Q37 383 39 398T47 426Q76 427 106 433T165 448T216 467Q242 455 251 429T247 352L202 162Q190 112 192 98T206 83Q214
83 224 88T248 105Q257 97 264 83T273 55Q242 23 206 7T133 -9ZM353 518Q318 518 300 541T286 596Q291 620 311 639T369 659Q412 659 427 635T436 575Q431 551 408 535T353 518ZM547 519Q505 519 488 543T478 604Q484 631 506 645T561 659Q596 659 615 637T628
581Q624 557 605 538T547 519Z" />
<glyph unicode="&#xf0;" glyph-name="eth" horiz-adv-x="509" d="M205 -8Q96 -8 52 54T30 230Q54 342 119 402T274 462Q308 462 325 455T356 435V369Q341 387 325 394T295 401Q252 401 223 357T176 223Q160 137 172 97T218 56Q259 56 289 110T338 267Q358 369
351 442T306 564T197 646Q198 659 202 673T214 701Q245 697 280 703T341 716Q406 669 445 602T494 450T485 267Q458 132 389 62T205 -8ZM219 476Q213 491 212 512T214 546L513 677Q518 662 518 644T517 607Q468 589 418 569T318 526T219 476Z" />
<glyph unicode="&#xf1;" glyph-name="ntilde" horiz-adv-x="596" d="M37 0L89 276Q97 317 97 337T84 363T38 369Q38 383 40 398T47 426Q76 427 109 433T175 448T231 467Q249 459 255 443T258 402Q252 365 243 338T220 278L198 88L182 0H37ZM440 467Q465 467 486
457T520 425T536 364T526 271L502 169Q493 129 490 111T490 87T501 82Q510 82 521 88T545 105Q554 96 561 83T571 55Q538 22 503 7T431 -9Q382 -9 362 12T342 73T354 162L375 253Q383 289 383 311T377 344T357 355Q340 355 318 338T273 287T230 203T198 88L195
224L237 311Q251 340 273 368T322 418T379 454T440 467ZM411 545Q388 545 371 552T340 569T312 586T278 594Q254 594 230 582T182 549Q172 561 168 574T165 605Q210 653 245 668T304 683Q327 683 344 676T376 660T404 643T434 636Q456 636 476 648T512 678Q524
674 534 665T551 643Q512 590 479 568T411 545Z" />
<glyph unicode="&#xf2;" glyph-name="ograve" horiz-adv-x="536" d="M228 -9Q152 -9 104 21T38 106T31 230Q43 304 81 356T177 438T308 467Q383 467 430 438T497 356T505 232Q494 159 456 105T360 21T228 -9ZM239 52Q265 52 287 73T327 133T354 226Q368 306 352
356T294 406Q256 406 227 360T183 239Q174 181 177 139T197 75T239 52ZM313 705Q320 666 331 623T357 539Q343 535 323 535T289 541Q268 580 243 620T184 700Q212 709 246 711T313 705Z" />
<glyph unicode="&#xf3;" glyph-name="oacute" horiz-adv-x="536" d="M228 -9Q152 -9 104 21T38 106T31 230Q43 304 81 356T177 438T308 467Q383 467 430 438T497 356T505 232Q494 159 456 105T360 21T228 -9ZM239 52Q265 52 287 73T327 133T354 226Q368 306 352
356T294 406Q256 406 227 360T183 239Q174 181 177 139T197 75T239 52ZM351 715Q389 723 425 719T482 702Q439 663 400 619T330 530Q295 534 268 552Q286 581 302 611T331 668T351 715Z" />
<glyph unicode="&#xf4;" glyph-name="ocircumflex" horiz-adv-x="536" d="M228 -9Q152 -9 104 21T38 106T31 230Q43 304 81 356T177 438T308 467Q383 467 430 438T497 356T505 232Q494 159 456 105T360 21T228 -9ZM239 52Q265 52 287 73T327 133T354 226Q368 306
352 356T294 406Q256 406 227 360T183 239Q174 181 177 139T197 75T239 52ZM191 520Q175 530 166 547T157 578Q187 597 217 619T277 666T331 712Q346 715 362 713T393 705Q418 669 447 633T511 556Q502 545 486 537T451 526Q423 549 393 569T332 605Q309 594 284
580T234 550T191 520Z" />
<glyph unicode="&#xf5;" glyph-name="otilde" horiz-adv-x="536" d="M228 -9Q152 -9 104 21T38 106T31 230Q43 304 81 356T177 438T308 467Q383 467 430 438T497 356T505 232Q494 159 456 105T360 21T228 -9ZM239 52Q265 52 287 73T327 133T354 226Q368 306 352
356T294 406Q256 406 227 360T183 239Q174 181 177 139T197 75T239 52ZM392 545Q369 545 352 552T321 569T293 586T259 594Q235 594 211 582T163 549Q153 561 149 574T146 605Q191 653 226 668T285 683Q308 683 325 676T357 660T385 643T415 636Q437 636 457 648T493
678Q505 674 515 665T532 643Q493 590 460 568T392 545Z" />
<glyph unicode="&#xf6;" glyph-name="odieresis" horiz-adv-x="536" d="M228 -9Q152 -9 104 21T38 106T31 230Q43 304 81 356T177 438T308 467Q383 467 430 438T497 356T505 232Q494 159 456 105T360 21T228 -9ZM239 52Q265 52 287 73T327 133T354 226Q368 306
352 356T294 406Q256 406 227 360T183 239Q174 181 177 139T197 75T239 52ZM423 514Q385 514 369 536T359 596Q366 630 386 645T436 660Q473 660 490 639T499 580Q486 514 423 514ZM230 514Q192 514 176 539T168 600Q175 630 193 645T241 660Q279 660 296 638T305
577Q298 548 279 531T230 514Z" />
<glyph unicode="&#xf7;" glyph-name="divide" horiz-adv-x="550" d="M38 228Q38 243 41 263T49 298H512Q512 278 510 261T501 229Q461 230 434 230T385 231T340 231T285 231Q221 231 163 230T38 228ZM246 28Q217 28 198 47T178 94Q178 122 193 141T244 161Q280
161 296 143T313 94Q313 64 294 46T246 28ZM308 364Q272 364 255 382T237 430Q237 465 258 481T306 498Q334 498 354 482T374 436Q374 406 358 385T308 364Z" />
<glyph unicode="&#xf8;" glyph-name="oslash" horiz-adv-x="536" d="M228 -9Q152 -9 104 21T38 106T31 230Q43 304 81 356T177 438T308 467Q383 467 430 438T497 356T505 232Q494 159 456 105T360 21T228 -9ZM239 52Q265 52 287 73T327 133T354 226Q368 306 352
356T294 406Q256 406 227 360T183 239Q174 181 177 139T197 75T239 52ZM66 -26Q48 -26 31 -19T3 2L485 482Q505 483 521 475T547 454Q510 422 462 377T360 278T253 170T151 65T66 -26Z" />
<glyph unicode="&#xf9;" glyph-name="ugrave" horiz-adv-x="592" d="M141 -9Q109 -9 90 6T63 50T58 120T73 213Q86 269 92 301T95 347T78 365T38 370Q38 383 40 398T47 426Q75 427 108 433T172 448T227 467Q240 459 246 450T253 420T245 361T221 253Q209 199 208
168T214 123T238 109Q259 109 288 136T345 221T391 373L408 458H550L503 207Q492 150 489 124T488 90T502 82Q516 82 541 105Q550 97 557 83T566 55Q538 26 501 9T428 -9Q387 -9 366 7T339 48T340 106Q342 117 346 129T356 154H355Q339 121 316 92T265 40T206 4T141
-9ZM322 705Q329 666 340 623T366 539Q352 535 332 535T298 541Q277 580 252 620T193 700Q221 709 255 711T322 705Z" />
<glyph unicode="&#xfa;" glyph-name="uacute" horiz-adv-x="592" d="M141 -9Q109 -9 90 6T63 50T58 120T73 213Q86 269 92 301T95 347T78 365T38 370Q38 383 40 398T47 426Q75 427 108 433T172 448T227 467Q240 459 246 450T253 420T245 361T221 253Q209 199 208
168T214 123T238 109Q259 109 288 136T345 221T391 373L408 458H550L503 207Q492 150 489 124T488 90T502 82Q516 82 541 105Q550 97 557 83T566 55Q538 26 501 9T428 -9Q387 -9 366 7T339 48T340 106Q342 117 346 129T356 154H355Q339 121 316 92T265 40T206 4T141
-9ZM359 715Q397 723 433 719T490 702Q447 663 408 619T338 530Q303 534 276 552Q294 581 310 611T339 668T359 715Z" />
<glyph unicode="&#xfb;" glyph-name="ucircumflex" horiz-adv-x="592" d="M141 -9Q109 -9 90 6T63 50T58 120T73 213Q86 269 92 301T95 347T78 365T38 370Q38 383 40 398T47 426Q75 427 108 433T172 448T227 467Q240 459 246 450T253 420T245 361T221 253Q209
199 208 168T214 123T238 109Q259 109 288 136T345 221T391 373L408 458H550L503 207Q492 150 489 124T488 90T502 82Q516 82 541 105Q550 97 557 83T566 55Q538 26 501 9T428 -9Q387 -9 366 7T339 48T340 106Q342 117 346 129T356 154H355Q339 121 316 92T265
40T206 4T141 -9ZM200 520Q184 530 175 547T166 578Q196 597 226 619T286 666T340 712Q355 715 371 713T402 705Q427 669 456 633T520 556Q511 545 495 537T460 526Q432 549 402 569T341 605Q318 594 293 580T243 550T200 520Z" />
<glyph unicode="&#xfc;" glyph-name="udieresis" horiz-adv-x="592" d="M141 -9Q109 -9 90 6T63 50T58 120T73 213Q86 269 92 301T95 347T78 365T38 370Q38 383 40 398T47 426Q75 427 108 433T172 448T227 467Q240 459 246 450T253 420T245 361T221 253Q209 199
208 168T214 123T238 109Q259 109 288 136T345 221T391 373L408 458H550L503 207Q492 150 489 124T488 90T502 82Q516 82 541 105Q550 97 557 83T566 55Q538 26 501 9T428 -9Q387 -9 366 7T339 48T340 106Q342 117 346 129T356 154H355Q339 121 316 92T265 40T206
4T141 -9ZM431 514Q393 514 377 536T367 596Q374 630 394 645T444 660Q481 660 498 639T507 580Q494 514 431 514ZM238 514Q200 514 184 539T176 600Q183 630 201 645T249 660Q287 660 304 638T313 577Q306 548 287 531T238 514Z" />
<glyph unicode="&#xfd;" glyph-name="yacute" horiz-adv-x="511" d="M167 467Q181 463 189 456T204 434T216 392Q238 303 250 219T267 49L156 -90Q150 -9 141 61T119 193T90 308Q80 344 66 357T13 368Q12 385 14 399T21 426Q44 428 71 435T125 450T167 467ZM444
467Q472 458 485 436T499 382Q499 355 491 325T460 254T400 159T302 31Q231 -60 183 -115T101 -199T40 -238T-19 -248Q-48 -248 -74 -238T-122 -205Q-123 -186 -119 -163T-107 -122Q-83 -132 -56 -136T-3 -141Q26 -141 51 -134T103 -106T163 -46T244 57Q291 120
317 166T354 246T365 306Q365 334 349 350T295 368Q292 398 299 425Q322 428 350 435T404 451T444 467ZM317 715Q355 723 391 719T448 702Q405 663 366 619T296 530Q261 534 234 552Q252 581 268 611T297 668T317 715Z" />
<glyph unicode="&#xfe;" glyph-name="thorn" horiz-adv-x="538" d="M262 710Q280 698 285 683T285 633L254 463Q245 414 237 380T220 319T200 264L158 64Q167 23 166 -12T160 -79L130 -244H-14L121 519Q128 561 128 580T114 606T69 612Q69 626 71 641T78 669Q107
670 140 676T206 691T262 710ZM126 8L170 68Q183 62 202 58T238 54Q288 54 315 96T356 202Q372 280 365 319T330 359Q313 359 287 335T234 258T191 122L172 42L134 49L183 267H203Q225 328 255 373T324 442T406 467Q446 467 470 449T506 400T518 327T509 241Q496
171 459 115T363 25T223 -9Q195 -9 170 -4T126 8Z" />
<glyph unicode="&#xff;" glyph-name="ydieresis" horiz-adv-x="511" d="M167 467Q181 463 189 456T204 434T216 392Q238 303 250 219T267 49L156 -90Q150 -9 141 61T119 193T90 308Q80 344 66 357T13 368Q12 385 14 399T21 426Q44 428 71 435T125 450T167 467ZM444
467Q472 458 485 436T499 382Q499 355 491 325T460 254T400 159T302 31Q231 -60 183 -115T101 -199T40 -238T-19 -248Q-48 -248 -74 -238T-122 -205Q-123 -186 -119 -163T-107 -122Q-83 -132 -56 -136T-3 -141Q26 -141 51 -134T103 -106T163 -46T244 57Q291 120
317 166T354 246T365 306Q365 334 349 350T295 368Q292 398 299 425Q322 428 350 435T404 451T444 467ZM389 514Q351 514 335 536T325 596Q332 630 352 645T402 660Q439 660 456 639T465 580Q452 514 389 514ZM196 514Q158 514 142 539T134 600Q141 630 159 645T207
660Q245 660 262 638T271 577Q264 548 245 531T196 514Z" />
<glyph unicode="&#x2013;" glyph-name="endash" horiz-adv-x="548" d="M46 222Q46 242 51 261T67 296H514Q513 277 508 259T492 226Q422 226 350 226T203 225T46 222Z" />
<glyph unicode="&#x2014;" glyph-name="emdash" horiz-adv-x="1024" d="M45 222Q48 267 68 295H990Q989 275 984 257T968 225Q843 225 702 225T398 225T45 222Z" />
<glyph unicode="&#x2018;" glyph-name="quoteleft" horiz-adv-x="272" d="M144 422Q124 432 117 459T119 530Q128 578 156 627T237 717Q255 715 267 708T286 688Q230 633 227 593T279 542Q279 519 273 496T256 455Q225 454 195 444T144 422Z" />
<glyph unicode="&#x2019;" glyph-name="quoteright" horiz-adv-x="272" d="M260 717Q281 707 287 680T285 609Q276 561 248 513T167 422Q149 423 137 431T118 451Q176 507 179 546T125 597Q125 620 131 643T149 684Q180 686 210 695T260 717Z" />
<glyph unicode="&#x201a;" glyph-name="quotesinglbase" horiz-adv-x="226" d="M131 146Q152 136 158 109T156 38Q147 -10 119 -58T38 -149Q20 -148 8 -140T-11 -120Q47 -64 50 -25T-4 26Q-4 49 2 72T20 113Q51 115 81 124T131 146Z" />
<glyph unicode="&#x201c;" glyph-name="quotedblleft" horiz-adv-x="452" d="M138 417Q117 427 111 454T113 525Q122 573 150 622T231 712Q249 711 261 703T280 683Q226 631 221 592T269 537Q269 514 263 491T245 450Q214 449 187 440T138 417ZM323 417Q299 429
294 459T301 535Q312 582 337 627T406 707Q424 705 436 698T455 677Q398 623 399 585T453 537Q453 514 448 491T430 450Q399 449 372 440T323 417Z" />
<glyph unicode="&#x201d;" glyph-name="quotedblright" horiz-adv-x="453" d="M446 717Q466 707 473 680T471 609Q462 561 434 513T353 422Q335 423 323 431T304 451Q358 504 362 543T315 597Q315 620 321 643T338 684Q369 686 397 695T446 717ZM261 717Q285 705
289 675T283 599Q273 552 248 507T178 427Q160 429 148 436T129 457Q185 511 185 549T130 597Q130 620 136 643T154 684Q185 686 212 695T261 717Z" />
<glyph unicode="&#x201e;" glyph-name="quotedblbase" horiz-adv-x="407" d="M312 146Q332 136 339 109T337 38Q328 -10 300 -58T219 -149Q201 -148 189 -140T170 -120Q224 -67 228 -28T181 26Q181 49 187 72T204 113Q235 115 263 124T312 146ZM127 146Q151 134
155 104T149 28Q139 -19 114 -64T44 -144Q26 -142 14 -135T-5 -114Q51 -60 51 -22T-4 26Q-4 49 2 72T20 113Q51 115 78 124T127 146Z" />
<glyph unicode="&#x2022;" glyph-name="bullet" horiz-adv-x="362" d="M185 141Q138 141 107 162T63 219T58 298Q68 345 106 373T201 402Q244 402 274 382T317 329T322 255Q311 203 275 172T185 141Z" />
<glyph unicode="&#x2039;" glyph-name="guilsinglleft" horiz-adv-x="282" d="M215 415Q179 380 144 350T67 287Q58 276 52 259T45 222Q75 190 108 151T172 70Q187 78 197 88T217 114Q208 133 196 158T174 210T156 258Q170 277 190 301T231 350T268 391Q261 401
247 408T215 415Z" />
<glyph unicode="&#x203a;" glyph-name="guilsinglright" horiz-adv-x="292" d="M132 414Q155 385 184 353T245 289Q251 274 251 256T246 223Q199 187 153 148T65 71Q38 89 31 120Q60 147 92 179T147 240Q139 263 128 290T103 345T76 397Q90 407 103 411T132 414Z" />
</font>
</defs>
</svg>
